TAIFUN With Song
R&B Ссылки на музыку в этом стиле

А знаете ли Вы, что...
Какая песня, часто приписываемая Элвису Пресли, никогда им не записывалась?
«Песню «Only You» часто приписывают Элвису Пресли, хотя на самом деле наиболее известными её исполнителями является группа «The Platters». Элвис пел «Only You» на некоторых концертах, но не существует ни одной аудио- или видеозаписи этой композиции в его исполнении.»
 
Опции темы

  #1
Старый 13.04.2017, 20:38
sergych
Координатор
Досье
 
Аватар для sergych
Релиз Seal - Seal


1991 - Seal - Seal




Исполнитель/Artist: Seal
Альбом/Album: Seal
Год/Year: 1991
Жанр/Genre: Soul, R&B, electro, new jack swing
Страна/Country: Германия
Рекорд-лейбл/Record label: ZTT Records
Номер в каталоге/Catalogue #: 9031-74557-2
Формат/Format: Free Lossless Audio Codec (*.flac)
Качество/Quality: Lossless
Тип рипа/RIP Type: image+.cue
Продолжительность/Length: 00:52:15
Источник/Source: Собственный рип
Размер/Size: 346.8 MB

Сканы в комплекте

Треклист

01. The Beginning [0:05:41.00]
02. Deep Water [0:05:57.20]
03. Crazy [0:05:57.05]
04. Killer [0:06:22.50]
05. Whirlpool [0:03:58.22]
06. Future Love Paradise [0:04:20.30]
07. Wild [0:05:28.23]
08. Show Me [0:05:59.72]
09. Violet [0:08:30.23]
[свернуть]

youtube.com

[свернуть]

Исполнители/Performers

Seal - vocals
Trevor Horn, Andy Duncan, Bruce Woolley, Chester Kamen, Chrissie Schefts, Curt Bisquera, Denny Fongheiser, Doug Wimbish, Gary Maughan, Gota Yashiki, Gus Isidore, Guy Sigsworth, Ian Morrow, Jamie Muhoberac, John Robinson, Keith LeBlanc, Kenji Suzuki, Luís Jardim, Maria Vidale, Mark Mancina, Mars Lasar, Paulinho Da Costa, Randall Jacobs, Richard Cottle, Robin Hancock, Steve Pearce, Trevor Rabin - musicians
Anne Dudley - string arrangements
[свернуть]

EAC лог

Exact Audio Copy V1.3 from 2. September 2016

EAC extraction logfile from 13. April 2017, 20:15

Seal / Seal

Used drive : PLEXTOR DVDR PX-716A Adapter: 1 ID: 0

Read mode : Secure
Utilize accurate stream : Yes
Defeat audio cache : Yes
Make use of C2 pointers : No

Read offset correction : 30
Overread into Lead-In and Lead-Out : No
Fill up missing offset samples with silence : Yes
Delete leading and trailing silent blocks : No
Null samples used in CRC calculations : Yes
Used interface : Native Win32 interface for Win NT & 2000

Used output format : User Defined Encoder
Selected bitrate : 1024 kBit/s
Quality : High
Add ID3 tag : No
Command line compressor : C:\Program Files (x86)\Exact Audio Copy\FLAC\FLAC.EXE
Additional command line options : -6 -V -T "ARTIST=%artist%" -T "TITLE=%title%" -T "ALBUM=%albumtitle%" -T "DATE=%year%" -T "TRACKNUMBER=%tracknr%" -T "GENRE=%genre%" -T "COMMENT=%comment%" -T "BAND=%albuminterpret%" -T "ALBUMARTIST=%albuminterpret%" -T "COMPOSER=%composer%" %haslyrics%--tag-from-file=LYRICS="%lyricsfile%"%haslyrics% -T "DISCNUMBER=%cdnumber%" -T "TOTALDISCS=%totalcds%" -T "TOTALTRACKS=%numtracks%" %hascover%--picture="%coverfile%"%hascover% %source% -o %dest%


TOC of the extracted CD

Track | Start | Length | Start sector | End sector
---------------------------------------------------------
1 | 0:00.00 | 5:41.00 | 0 | 25574
2 | 5:41.00 | 5:57.20 | 25575 | 52369
3 | 11:38.20 | 5:57.05 | 52370 | 79149
4 | 17:35.25 | 6:22.50 | 79150 | 107849
5 | 23:58.00 | 3:58.22 | 107850 | 125721
6 | 27:56.22 | 4:20.30 | 125722 | 145251
7 | 32:16.52 | 5:28.23 | 145252 | 169874
8 | 37:45.00 | 5:59.72 | 169875 | 196871
9 | 43:44.72 | 8:30.23 | 196872 | 235144


Range status and errors

Selected range

Filename C:\mm\Seal\1991 - Seal [9031-74557-2]\Seal - Seal.wav

Peak level 100.0 %
Extraction speed 11.0 X
Range quality 100.0 %
Test CRC 66CEB3E6
Copy CRC 66CEB3E6
Copy OK

No errors occurred


AccurateRip summary

Track 1 accurately ripped (confidence 200) [24CB2D79] (AR v2)
Track 2 accurately ripped (confidence 200) [F4F0925A] (AR v2)
Track 3 accurately ripped (confidence 200) [9A619F0F] (AR v2)
Track 4 accurately ripped (confidence 200) [30133D9D] (AR v2)
Track 5 accurately ripped (confidence 200) [134D137D] (AR v2)
Track 6 accurately ripped (confidence 200) [14A21F32] (AR v2)
Track 7 accurately ripped (confidence 200) [7F85D363] (AR v2)
Track 8 accurately ripped (confidence 200) [87D86E6D] (AR v2)
Track 9 accurately ripped (confidence 200) [0F894073] (AR v2)

All tracks accurately ripped

End of status report

---- CUETools DB Plugin V2.1.6

[CTDB TOCID: usDUnTU8nsePDT60EvkqZ.3mYLk-] found
Submit result: usDUnTU8nsePDT60EvkqZ.3mYLk- has been confirmed
Track | CTDB Status
1 | (969/987) Accurately ripped
2 | (975/987) Accurately ripped
3 | (969/987) Accurately ripped
4 | (974/987) Accurately ripped
5 | (971/987) Accurately ripped
6 | (971/987) Accurately ripped
7 | (961/987) Accurately ripped
8 | (962/987) Accurately ripped
9 | (960/987) Accurately ripped
[свернуть]

Файл CUE

REM GENRE Pop
REM DATE 1991
REM DISCID 750C3F09
REM COMMENT "ExactAudioCopy v1.3"
PERFORMER "Seal"
TITLE "Seal"
REM COMPOSER ""
FILE "Seal - Seal.flac" WAVE
TRACK 01 AUDIO
TITLE "The Beginning"
PERFORMER "Seal"
REM COMPOSER ""
INDEX 01 00:00:00
TRACK 02 AUDIO
TITLE "Deep Water"
PERFORMER "Seal"
REM COMPOSER ""
INDEX 01 05:41:00
TRACK 03 AUDIO
TITLE "Crazy"
PERFORMER "Seal"
REM COMPOSER ""
INDEX 01 11:38:20
TRACK 04 AUDIO
TITLE "Killer"
PERFORMER "Seal"
REM COMPOSER ""
INDEX 00 17:33:57
INDEX 01 17:35:25
TRACK 05 AUDIO
TITLE "Whirlpool"
PERFORMER "Seal"
REM COMPOSER ""
INDEX 00 23:57:15
INDEX 01 23:58:00
TRACK 06 AUDIO
TITLE "Future Love Paradise"
PERFORMER "Seal"
REM COMPOSER ""
INDEX 00 27:53:40
INDEX 01 27:56:22
TRACK 07 AUDIO
TITLE "Wild"
PERFORMER "Seal"
REM COMPOSER ""
INDEX 00 32:16:05
INDEX 01 32:16:52
TRACK 08 AUDIO
TITLE "Show Me"
PERFORMER "Seal"
REM COMPOSER ""
INDEX 00 37:44:07
INDEX 01 37:45:00
TRACK 09 AUDIO
TITLE "Violet"
PERFORMER "Seal"
REM COMPOSER ""
INDEX 00 43:44:52
INDEX 01 43:44:72
[свернуть]

Лог проверки качества

AUDIOCHECKER v2.0 beta (build 457) - by Dester - [Ссылки могут видеть только зарегистрированные пользователи. ]
~~~~~~~~~~~~~~~~~~~~~~~~~~~~~~~~~~
-=== НЕ РЕДАКТИРУЙТЕ ЭТОТ ФАЙЛ! ===-

Путь: ...\1991 - Seal [9031-74557-2]

1 -=- Seal - Seal.flac -=- CDDA (100%)

70741908
[свернуть]

Спектр частот

[свернуть]

Скачать Seal - Seal

[Ссылки могут видеть только зарегистрированные пользователи. ]

password: sergych
[свернуть]

Контрольная сумма (хеш-сумма) архива

MD5: 0e8531c524a35e80c452e97fe8be86b5
[свернуть]
My opinion of release: 10/10
__________________
TAIFUN.Wings of Soul

Вверх
Пользователь сказал cпасибо:
swint68 (13.04.2017)
Похожие темы
Тема Автор Раздел Ответов Последнее сообщение
Альбом Seal - System sergych Зарубежная Поп-Музыка 0 07.05.2016 15:48
Альбом Seal - Soul 2 sergych R&B 0 04.05.2016 23:32
Релиз Seal - 6: Commitment PUPOKIN R&B 0 18.09.2010 09:53
Сборник Seal - Hits PUPOKIN R&B 0 26.11.2009 10:31
Seal sergych R&B [FAQ] 0 13.06.2008 19:12


Метки
1991 , electro , new jack swing , r&b , seal , soul

Опции темы

Ваши права в разделе
Вы не можете создавать новые темы
Вы не можете отвечать в темах
Вы не можете прикреплять вложения
Вы не можете редактировать свои сообщения

Быстрый переход



Текущее время: 01:51. Часовой пояс GMT +3.
Powered by vBulletin® Version 3.8.7
Copyright ©2000 - 2017, vBulletin Solutions, Inc. Перевод: zCarot
© 2008 - 2017 Taifun With Song
Яндекс.Метрика