TAIFUN With Song
Вернуться   TAIFUN With Song > Music (обменник) > Rock
Расширенный поиск
А знаете ли Вы, что...
Где собачий вальс зовут ослиным маршем, а где — кошачьей полькой?
«Собачий вальс в разных странах называется по-разному. В Германии, Бельгии, Нидерландах — блошиный вальс. В Болгарии — кошачий марш, а в Финляндии — кошачья полька. В Венгрии — ослиный марш, а во Франции его почему-то называют отбивной котлетой.»
 
Опции темы

  #1
Старый 12.04.2017, 21:21
sergych
Координатор
Досье
 
Аватар для sergych
Релиз Don Henley - Cass County


2015 - Don Henley - Cass County




Исполнитель/Artist: Don Henley
Альбом/Album: Cass County
Год/Year: 2015
Жанр/Genre: Rock, country rock, soft rock
Страна/Country: Соединённые Штаты
Рекорд-лейбл/Record label: Capitol Records
Номер в каталоге/Catalogue #: B002351202
Формат/Format: Free Lossless Audio Codec (*.flac)
Качество/Quality: Lossless
Тип рипа/RIP Type: image+.cue
Продолжительность/Length: 00:48:50
Источник/Source: Собственный рип
Размер/Size: 395.8 MB

Сканы в комплекте

Треклист

01. Don Henley feat. Mick Jagger & Miranda Lambert / Bramble Rose [0:04:31.12]
02. Don Henley feat. Merle Haggard / The Cost of Living [0:03:40.33]
03. Take a Picture of This [0:04:06.65]
04. Don Henley feat. Jamey Johnson & Lee Ann Womack / Waiting Tables [0:04:47.73]
05. Don Henley feat. Vince Gill / No, Thank You [0:03:45.32]
06. Don Henley feat. Molly Felder, Vince Gill, Alison Krauss, Ashley Monroe & Trisha Yearwood / Praying for Rain [0:05:00.48]
07. Don Henley feat. Trisha Yearwood / Words Can Break Your Heart [0:03:40.37]
08. Don Henley feat. Martina McBride / That Old Flame [0:04:25.46]
09. Don Henley feat. Dolly Parton / When I Stop Dreaming [0:03:06.36]
10. A Younger Man [0:04:20.57]
11. Don Henley feat. Lucinda Williams / Train In the Distance [0:04:47.15]
12. Don Henley feat. Trisha Yearwood / Where I Am Now [0:02:36.59]
[свернуть]

youtube.com

[свернуть]

Исполнители/Performers

Joe Bolero - Tenor Saxophone on "Too Much Pride"
Steve Falkner - Trumpet on "Too Much Pride"
Pat Gullota - Trombone on "Too Much Pride"
Bill Chaplin, Marco Giovino, Matt Allen - percussion
Jeff Babko - pump organ
Alex Hahn, Greg Bissonette, Will Henley - drums
Chris Holt, Gordon Kennedy, Jerry McPherson, J.T. Corenflos, Richard Bowden - electric guitar
Pat Buchanan - electric guitar, harmonica
Alison Krauss, Angela Primm, Ashley Monroe, Gale Mayes, Jamey Johnson, Lee Ann Womack, Michelle Branch, Molly Felder, Sally Dworsky - background vocals
Court Yard Hounds - background vocals on "She Sang Hymns Out Of Tune"
Richard Davis - cello, keyboards, organ
John Deaderick - keyboards
Milo Deering - fiddle, pedal steel guitar
Jerry Douglas - lap steel guitar
Dan Dugmore, Russ Pahl - pedal steel guitar
Greg Morrow, Shannon Forrest - drums, percussion
Vince Gill - acoustic guitar, electric guitar, background vocals
Tony Harrell - organ, piano
Don Henley - lead vocals
Jim Hoke - mandolin, pedal steel guitar
Rob Ickes - dobro
David Piltch, Glenn Worf, Jimmie Lee Sloas, Jimmy Johnson, Michael Rhodes - bass guitar
Aaron Kelley - electric guitar, mandolin
Mick Jagger - harmonica and vocals on "Bramble Rose"
Miranda Lambert - vocals on "Bramble Rose"
Merle Haggard - vocals on "The Cost of Living"
Lucinda Williams - vocals on "Train In the Distance"
Trisha Yearwood - vocals on "Words Can Break Your Heart"
Martina McBride - vocals on "That Old Flame"
Dolly Parton - vocals on "When I Stop Dreaming"
Stan Lynch - acoustic guitar, electric guitar, percussion
David Moran - Hammer dulcimer
Mike Rojas - organ, piano, Wurlitzer
Steuart Smith - bass guitar, acoustic guitar, electric guitar
Bryan Sutton - acoustic guitar, mandolin
[свернуть]

EAC лог

Exact Audio Copy V1.3 from 2. September 2016

EAC extraction logfile from 12. April 2017, 20:23

Don Henley / Cass County

Used drive : PLEXTOR DVDR PX-716A Adapter: 1 ID: 0

Read mode : Secure
Utilize accurate stream : Yes
Defeat audio cache : Yes
Make use of C2 pointers : No

Read offset correction : 30
Overread into Lead-In and Lead-Out : No
Fill up missing offset samples with silence : Yes
Delete leading and trailing silent blocks : No
Null samples used in CRC calculations : Yes
Used interface : Native Win32 interface for Win NT & 2000

Used output format : User Defined Encoder
Selected bitrate : 1024 kBit/s
Quality : High
Add ID3 tag : No
Command line compressor : C:\Program Files (x86)\Exact Audio Copy\FLAC\FLAC.EXE
Additional command line options : -6 -V -T "ARTIST=%artist%" -T "TITLE=%title%" -T "ALBUM=%albumtitle%" -T "DATE=%year%" -T "TRACKNUMBER=%tracknr%" -T "GENRE=%genre%" -T "COMMENT=%comment%" -T "BAND=%albuminterpret%" -T "ALBUMARTIST=%albuminterpret%" -T "COMPOSER=%composer%" %haslyrics%--tag-from-file=LYRICS="%lyricsfile%"%haslyrics% -T "DISCNUMBER=%cdnumber%" -T "TOTALDISCS=%totalcds%" -T "TOTALTRACKS=%numtracks%" %hascover%--picture="%coverfile%"%hascover% %source% -o %dest%


TOC of the extracted CD

Track | Start | Length | Start sector | End sector
---------------------------------------------------------
1 | 0:00.00 | 4:31.12 | 0 | 20336
2 | 4:31.12 | 3:40.33 | 20337 | 36869
3 | 8:11.45 | 4:06.65 | 36870 | 55384
4 | 12:18.35 | 4:47.73 | 55385 | 76982
5 | 17:06.33 | 3:45.32 | 76983 | 93889
6 | 20:51.65 | 5:00.48 | 93890 | 116437
7 | 25:52.38 | 3:40.37 | 116438 | 132974
8 | 29:33.00 | 4:25.46 | 132975 | 152895
9 | 33:58.46 | 3:06.36 | 152896 | 166881
10 | 37:05.07 | 4:20.57 | 166882 | 186438
11 | 41:25.64 | 4:47.15 | 186439 | 207978
12 | 46:13.04 | 2:36.59 | 207979 | 219737


Range status and errors

Selected range

Filename C:\mm\Don Henley\2015 - Cass County [B002351202]\Don Henley - Cass County.wav

Peak level 99.8 %
Extraction speed 4.0 X
Range quality 99.9 %
Test CRC 5B20C967
Copy CRC 5B20C967
Copy OK

No errors occurred


AccurateRip summary

Track 1 accurately ripped (confidence 65) [9D28F5AA] (AR v2)
Track 2 accurately ripped (confidence 65) [3DF9CA7E] (AR v2)
Track 3 accurately ripped (confidence 65) [79384E57] (AR v2)
Track 4 accurately ripped (confidence 65) [3A4F5943] (AR v2)
Track 5 accurately ripped (confidence 65) [230542C6] (AR v2)
Track 6 accurately ripped (confidence 65) [21F3B361] (AR v2)
Track 7 accurately ripped (confidence 64) [9892D89E] (AR v2)
Track 8 accurately ripped (confidence 64) [F0ACA738] (AR v2)
Track 9 accurately ripped (confidence 65) [B54103F1] (AR v2)
Track 10 accurately ripped (confidence 65) [E6B9D9A4] (AR v2)
Track 11 accurately ripped (confidence 65) [87D697C6] (AR v2)
Track 12 accurately ripped (confidence 65) [7F9494AD] (AR v2)

All tracks accurately ripped

End of status report

---- CUETools DB Plugin V2.1.6

[CTDB TOCID: XVJRkZgNBl_sHeFtHY29YIlB22E-] found
Submit result: XVJRkZgNBl_sHeFtHY29YIlB22E- has been confirmed
Track | CTDB Status
1 | (248/249) Accurately ripped
2 | (248/249) Accurately ripped
3 | (248/249) Accurately ripped
4 | (248/249) Accurately ripped
5 | (247/249) Accurately ripped
6 | (246/249) Accurately ripped
7 | (247/249) Accurately ripped
8 | (248/249) Accurately ripped
9 | (248/249) Accurately ripped
10 | (247/249) Accurately ripped
11 | (247/249) Accurately ripped
12 | (245/249) Accurately ripped
[свернуть]

Файл CUE

REM GENRE Rock
REM DATE 2015
REM DISCID 9F0B710C
REM COMMENT "ExactAudioCopy v1.3"
PERFORMER "Don Henley"
TITLE "Cass County"
REM COMPOSER ""
FILE "Don Henley - Cass County.flac" WAVE
TRACK 01 AUDIO
TITLE "Bramble Rose"
PERFORMER "Don Henley feat. Mick Jagger & Miranda Lambert"
REM COMPOSER ""
INDEX 01 00:00:00
TRACK 02 AUDIO
TITLE "The Cost of Living"
PERFORMER "Don Henley feat. Merle Haggard"
REM COMPOSER ""
INDEX 01 04:31:12
TRACK 03 AUDIO
TITLE "Take a Picture of This"
PERFORMER "Don Henley"
REM COMPOSER ""
INDEX 00 08:09:62
INDEX 01 08:11:45
TRACK 04 AUDIO
TITLE "Waiting Tables"
PERFORMER "Don Henley feat. Jamey Johnson & Lee Ann Womack"
REM COMPOSER ""
INDEX 00 12:18:11
INDEX 01 12:18:35
TRACK 05 AUDIO
TITLE "No, Thank You"
PERFORMER "Don Henley feat. Vince Gill"
REM COMPOSER ""
INDEX 01 17:06:33
TRACK 06 AUDIO
TITLE "Praying for Rain"
PERFORMER "Don Henley feat. Molly Felder, Vince Gill, Alison Krauss, Ashley Monroe & Tri..."
REM COMPOSER ""
INDEX 00 20:51:04
INDEX 01 20:51:65
TRACK 07 AUDIO
TITLE "Words Can Break Your Heart"
PERFORMER "Don Henley feat. Trisha Yearwood"
REM COMPOSER ""
INDEX 00 25:50:29
INDEX 01 25:52:38
TRACK 08 AUDIO
TITLE "That Old Flame"
PERFORMER "Don Henley feat. Martina McBride"
REM COMPOSER ""
INDEX 00 29:31:44
INDEX 01 29:33:00
TRACK 09 AUDIO
TITLE "When I Stop Dreaming"
PERFORMER "Don Henley feat. Dolly Parton"
REM COMPOSER ""
INDEX 00 33:57:57
INDEX 01 33:58:46
TRACK 10 AUDIO
TITLE "A Younger Man"
PERFORMER "Don Henley"
REM COMPOSER ""
INDEX 00 37:03:36
INDEX 01 37:05:07
TRACK 11 AUDIO
TITLE "Train In the Distance"
PERFORMER "Don Henley feat. Lucinda Williams"
REM COMPOSER ""
INDEX 00 41:25:04
INDEX 01 41:25:64
TRACK 12 AUDIO
TITLE "Where I Am Now"
PERFORMER "Don Henley feat. Trisha Yearwood"
REM COMPOSER ""
INDEX 00 46:11:64
INDEX 01 46:13:04
[свернуть]

Лог проверки качества

AUDIOCHECKER v2.0 beta (build 457) - by Dester -
~~~~~~~~~~~~~~~~~~~~~~~~~~~~~~~~~~
-=== НЕ РЕДАКТИРУЙТЕ ЭТОТ ФАЙЛ! ===-

Путь: ...\2015 - Cass County [B002351202]

1 -=- Don Henley - Cass County.flac -=- CDDA (100%)

62559364
[свернуть]

Спектр частот

[свернуть]

Скачать Don Henley - Cass County



password: sergych
[свернуть]

Контрольная сумма (хеш-сумма) архива

MD5: f4deaac1af000892ec64fd57cd9f6572
[свернуть]
My opinion of release: 8/10
__________________
TAIFUN.Wings of Soul

Вверх
2 пользователя(ей) сказали cпасибо:
johnsilver (12.04.2017), swint68 (13.04.2017)
Похожие темы
Тема Автор Раздел Ответов Последнее сообщение
Альбом Don Henley - The End Of The Innocence sergych Rock 0 20.03.2017 19:46
Альбом Elf - Carolina County Ball Stanislav1989 Hard Rock 0 03.06.2010 18:59
Релиз Tony Carey – Stanislaus County Kid PUPOKIN Blues Rock 0 10.04.2010 10:16


Метки
2015 , cass county , country rock , don henley , rock , soft rock

Опции темы

Ваши права в разделе
Вы не можете создавать новые темы
Вы не можете отвечать в темах
Вы не можете прикреплять вложения
Вы не можете редактировать свои сообщения

Быстрый переход



Текущее время: 02:55. Часовой пояс GMT +3.
Powered by vBulletin® Version 3.8.10
Copyright ©2000 - 2017, vBulletin Solutions, Inc. Перевод: zCarot
© 2008 - 2017 Taifun With Song
Яндекс.Метрика