TAIFUN With Song
Вернуться   TAIFUN With Song > Music (обменник) > Другие направления музыки > Jazz и Blues
Расширенный поиск
Jazz и Blues Гибкая ритмика, импровизационное начало, гармонии и мелодии - все это Jazz. Blues - жизнеутверждающая музыка, рожденная из душевной боли

А знаете ли Вы, что...
Какая консерватория носит имя композитора, которому отказала в приёме?
«Миланская консерватория носит имя Джузеппе Верди, хотя в 1833 году отказала ему в зачислении. Юному Верди было сказано, что он на 4 года старше обычного возраста принимаемых, не является гражданином Ломбардо-Венецианского королевства и лишён музыкального таланта.»
 
Опции темы

  #1
Старый 08.04.2017, 17:10
sergych
Координатор
Досье
 
Аватар для sergych
Релиз Leonard Cohen - Can't Forget: A Souvenir Of The Grand Tour


2015 - Leonard Cohen - Can't Forget: A Souvenir Of The Grand Tour




Исполнитель/Artist: Leonard Cohen
Альбом/Album: Can't Forget: A Souvenir Of The Grand Tour
Год/Year: 2015
Жанр/Genre: pop, ballad, blues, folk
Страна/Country: Соединённые Штаты
Рекорд-лейбл/Record label: Columbia / Sony Music
Номер в каталоге/Catalogue #: 88875074162
Формат/Format: Free Lossless Audio Codec (*.flac)
Качество/Quality: Lossless
Тип рипа/RIP Type: image+.cue
Продолжительность/Length: 00:48:40
Источник/Source: Собственный рип
Размер/Size: 423.7 MB

Сканы в комплекте

Треклист

01. Field Commander Cohen [0:04:25.17]
02. I Can't Forget [0:04:17.69]
03. Light As The Breeze [0:06:33.35]
04. La Manic [0:04:14.65]
05. Night Comes On [0:05:55.39]
06. Never Gave Nobody Trouble [0:04:51.43]
07. Joan Of Arc [0:06:30.50]
08. Got A Little Secret [0:04:35.20]
09. Choices [0:03:31.12]
10. Stages [0:03:44.56]
[свернуть]

youtube.com

[свернуть]

Исполнители/Performers

Double Bass [Upright Bass], Electric Bass, Music Director – Roscoe Beck
Drums, Percussion – Rafael Gayol
Guitar [Guitars] – Mitch Watkins
Guitar, Laúd [Laud], Theorbo [Archilaud], Bandurria [Banduria] – Javier Mas
Keyboards – Neil Larsen
Violin – Alex Bublitchi
Vocals – Sharon Robinson
Vocals, Guitar – Charley Webb, Leonard Cohen
Vocals, Harp – Hattie Webb
[свернуть]

EAC лог

Exact Audio Copy V1.3 from 2. September 2016

EAC extraction logfile from 5. April 2017, 0:35

Leonard Cohen / Can't Forget: A Souvenir Of The Grand Tour

Used drive : PLEXTOR DVDR PX-716A Adapter: 1 ID: 0

Read mode : Secure
Utilize accurate stream : Yes
Defeat audio cache : Yes
Make use of C2 pointers : No

Read offset correction : 30
Overread into Lead-In and Lead-Out : No
Fill up missing offset samples with silence : Yes
Delete leading and trailing silent blocks : No
Null samples used in CRC calculations : Yes
Used interface : Native Win32 interface for Win NT & 2000

Used output format : User Defined Encoder
Selected bitrate : 1024 kBit/s
Quality : High
Add ID3 tag : No
Command line compressor : C:\Program Files (x86)\Exact Audio Copy\FLAC\FLAC.EXE
Additional command line options : -6 -V -T "ARTIST=%artist%" -T "TITLE=%title%" -T "ALBUM=%albumtitle%" -T "DATE=%year%" -T "TRACKNUMBER=%tracknr%" -T "GENRE=%genre%" -T "COMMENT=%comment%" -T "BAND=%albuminterpret%" -T "ALBUMARTIST=%albuminterpret%" -T "COMPOSER=%composer%" %haslyrics%--tag-from-file=LYRICS="%lyricsfile%"%haslyrics% -T "DISCNUMBER=%cdnumber%" -T "TOTALDISCS=%totalcds%" -T "TOTALTRACKS=%numtracks%" %hascover%--picture="%coverfile%"%hascover% %source% -o %dest%


TOC of the extracted CD

Track | Start | Length | Start sector | End sector
---------------------------------------------------------
1 | 0:00.00 | 4:25.17 | 0 | 19891
2 | 4:25.17 | 4:17.69 | 19892 | 39235
3 | 8:43.11 | 6:33.35 | 39236 | 68745
4 | 15:16.46 | 4:14.65 | 68746 | 87860
5 | 19:31.36 | 5:55.39 | 87861 | 114524
6 | 25:27.00 | 4:51.43 | 114525 | 136392
7 | 30:18.43 | 6:30.50 | 136393 | 165692
8 | 36:49.18 | 4:35.20 | 165693 | 186337
9 | 41:24.38 | 3:31.12 | 186338 | 202174
10 | 44:55.50 | 3:44.56 | 202175 | 219030


Range status and errors

Selected range

Filename C:\mm\Leonard Cohen\2015 - Can't Forget. A Souvenir of the Grand Tour [88875074162]\Leonard Cohen - Can't Forget- A Souvenir Of The Grand Tour.wav

Peak level 100.0 %
Extraction speed 12.1 X
Range quality 100.0 %
Test CRC D58788F9
Copy CRC D58788F9
Copy OK

No errors occurred


AccurateRip summary

Track 1 accurately ripped (confidence 2) [B6937A60] (AR v2)
Track 2 accurately ripped (confidence 2) [FFBB6C21] (AR v2)
Track 3 accurately ripped (confidence 2) [B1E60EC1] (AR v2)
Track 4 accurately ripped (confidence 2) [6416E5DF] (AR v2)
Track 5 accurately ripped (confidence 2) [EE2D07F9] (AR v2)
Track 6 accurately ripped (confidence 2) [DECEB7FB] (AR v2)
Track 7 accurately ripped (confidence 2) [4985EF92] (AR v2)
Track 8 accurately ripped (confidence 2) [4661A191] (AR v2)
Track 9 accurately ripped (confidence 2) [15E2E731] (AR v2)
Track 10 accurately ripped (confidence 2) [17F87F91] (AR v2)

All tracks accurately ripped

End of status report

---- CUETools DB Plugin V2.1.6

[CTDB TOCID: 4wlYsyrDZSEBCTmzf6DJXUiAC5A-] found
Submit result: 4wlYsyrDZSEBCTmzf6DJXUiAC5A- has been confirmed
Track | CTDB Status
1 | (338/343) Accurately ripped
2 | (341/343) Accurately ripped
3 | (339/343) Accurately ripped
4 | (338/343) Accurately ripped
5 | (338/343) Accurately ripped
6 | (340/343) Accurately ripped
7 | (339/343) Accurately ripped
8 | (341/343) Accurately ripped
9 | (340/343) Accurately ripped
10 | (335/343) Accurately ripped
[свернуть]

Файл CUE

REM GENRE Pop/Folk
REM DATE 2015
REM DISCID 890B680A
REM COMMENT "ExactAudioCopy v1.3"
PERFORMER "Leonard Cohen"
TITLE "Can't Forget: A Souvenir Of The Grand Tour"
REM COMPOSER ""
FILE "Leonard Cohen - Can't Forget- A Souvenir Of The Grand Tour.flac" WAVE
TRACK 01 AUDIO
TITLE "Field Commander Cohen"
PERFORMER "Leonard Cohen"
REM COMPOSER ""
INDEX 01 00:00:00
TRACK 02 AUDIO
TITLE "I Can't Forget"
PERFORMER "Leonard Cohen"
REM COMPOSER ""
INDEX 00 04:24:00
INDEX 01 04:25:17
TRACK 03 AUDIO
TITLE "Light As The Breeze"
PERFORMER "Leonard Cohen"
REM COMPOSER ""
INDEX 01 08:43:11
TRACK 04 AUDIO
TITLE "La Manic"
PERFORMER "Leonard Cohen"
REM COMPOSER ""
INDEX 01 15:16:46
TRACK 05 AUDIO
TITLE "Night Comes On"
PERFORMER "Leonard Cohen"
REM COMPOSER ""
INDEX 01 19:31:36
TRACK 06 AUDIO
TITLE "Never Gave Nobody Trouble"
PERFORMER "Leonard Cohen"
REM COMPOSER ""
INDEX 01 25:27:00
TRACK 07 AUDIO
TITLE "Joan Of Arc"
PERFORMER "Leonard Cohen"
REM COMPOSER ""
INDEX 01 30:18:43
TRACK 08 AUDIO
TITLE "Got A Little Secret"
PERFORMER "Leonard Cohen"
REM COMPOSER ""
INDEX 01 36:49:18
TRACK 09 AUDIO
TITLE "Choices"
PERFORMER "Leonard Cohen"
REM COMPOSER ""
INDEX 01 41:24:38
TRACK 10 AUDIO
TITLE "Stages"
PERFORMER "Leonard Cohen"
REM COMPOSER ""
INDEX 01 44:55:50
[свернуть]

Лог проверки качества

AUDIOCHECKER v2.0 beta (build 457) - by Dester -
~~~~~~~~~~~~~~~~~~~~~~~~~~~~~~~~~~
-=== НЕ РЕДАКТИРУЙТЕ ЭТОТ ФАЙЛ! ===-

Путь: ...\2015 - Can't Forget. A Souvenir of the Grand Tour [88875074162]

1 -=- Leonard Cohen - Can't Forget- A Souvenir Of The Grand Tour.flac -=- CDDA (100%)

68631604
[свернуть]

Спектр частот

[свернуть]

Скачать Leonard Cohen - Can't Forget: A Souvenir Of The Grand Tour



password: sergych
[свернуть]

Контрольная сумма (хеш-сумма) архива

MD5: a327c2489d93d1160b5e4b8aac33bd6d
[свернуть]
My opinion of release: 10/10
__________________
TAIFUN.Wings of Soul

Вверх
2 пользователя(ей) сказали cпасибо:
johnsilver (08.04.2017), swint68 (09.04.2017)
Похожие темы
Тема Автор Раздел Ответов Последнее сообщение
Сборник Leonard Cohen - More best of Leonard Cohen sergych Folk (народная) 0 19.07.2014 16:36
Сборник Leonard Cohen - The Best Of Leonard Cohen sergych Folk (народная) 0 08.05.2014 22:12
Альбом Leonard Cohen - Songs Of Leonard Cohen henrik Pop Rock 0 05.11.2008 23:23
Альбом Leonard Cohen - I'm Your Man henrik Pop Rock 0 05.11.2008 23:23
Альбом Leonard Cohen - Ten New Songs henrik Pop Rock 0 05.11.2008 23:23


Метки
2015 , ballad , blues , can't forget: a souvenir of the grand tour , folk , leonard cohen , pop

Опции темы

Ваши права в разделе
Вы не можете создавать новые темы
Вы не можете отвечать в темах
Вы не можете прикреплять вложения
Вы не можете редактировать свои сообщения

Быстрый переход



Текущее время: 04:48. Часовой пояс GMT +3.
Powered by vBulletin® Version 3.8.7
Copyright ©2000 - 2017, vBulletin Solutions, Inc. Перевод: zCarot
© 2008 - 2017 Taifun With Song
Яндекс.Метрика