TAIFUN With Song
Навигация
Country Кантри объединяет две разновидности американского фольклора — это музыка белых поселенцев, обосновавшихся в Новом Свете в XVII—XVIII вв. и ковбойские баллады Дикого Запада. В этой музыке сильно наследие елизаветинских мадригалов, ирландской и шотландской народной музыки. Основные музыкальные инструменты этого стиля — гитара, банджо и скрипка.

А знаете ли Вы, что...
Музыка какой рок-группы привлекает акул?
«Австралиец Мэтт Уоллер занимается организацией подводных туров для любителей посмотреть на акул. Традиционно для приманки хищников он использовал рыбу, однако недавно случайно обнаружил, что акул привлекает музыка рок-группы AC/DC. Предположительно, акулы реагируют на вибрацию низких частот, так как у них нет ушей. Сейчас компания Уоллера — единственный туроператор в мире, использующий музыку для приманки, однако он полагает, что конкуренты вскоре последуют его примеру.»
 
Опции темы

  #1
Старый 07.04.2017, 18:33
sergych
Координатор
Досье
 
Аватар для sergych
Релиз Kenny Chesney - Greatest Hits II


2010 - Kenny Chesney - Greatest Hits II




Исполнитель/Artist: Kenny Chesney
Альбом/Album: Greatest Hits II
Год/Year: 2010
Жанр/Genre: Country, Country rock
Страна/Country: Соединённые Штаты
Рекорд-лейбл/Record label: Sony Music
Номер в каталоге/Catalogue #: 88697-65555-2
Формат/Format: Free Lossless Audio Codec (*.flac)
Качество/Quality: Lossless
Тип рипа/RIP Type: image+.cue
Продолжительность/Length: 01:06:08
Источник/Source: Собственный рип
Размер/Size: 529.7 MB

Сканы в комплекте

Треклист

01. Out Last Night (previously unreleased) [0:03:21.11]
02. Living in Fast Forward [0:03:32.16]
03. Young [0:03:57.74]
04. Summertime [0:03:26.17]
05. Kenny Chesney with Mac Mcanally / Down the Road [0:02:59.13]
06. Beer in Mexico [0:04:30.00]
07. There Goes My Life [0:05:01.04]
08. Kenny Chesney with Uncle Kracker / When the Sun Goes Down [0:04:49.73]
09. Anything But Mine [0:05:24.69]
10. Be As You Are [0:04:18.46]
11. I Go Back [0:04:00.26]
12. No Shoes, No Shirt, No Problems [0:03:32.05]
13. The Good Stuff [0:03:20.19]
14. Never Wanted Nothing More [0:03:28.49]
15. Kenny Chesney with Dave Matthews / I'm Alive [0:03:19.58]
16. This is Our Moment [Bonus] [0:03:05.57]
17. Ain't Back Yet [Bonus] [0:03:59.61]
[свернуть]

youtube.com

[свернуть]

EAC лог

Exact Audio Copy V1.3 from 2. September 2016

EAC extraction logfile from 6. April 2017, 7:12

Kenny Chesney / Greatest Hits II

Used drive : PLEXTOR DVDR PX-716A Adapter: 1 ID: 0

Read mode : Secure
Utilize accurate stream : Yes
Defeat audio cache : Yes
Make use of C2 pointers : No

Read offset correction : 30
Overread into Lead-In and Lead-Out : No
Fill up missing offset samples with silence : Yes
Delete leading and trailing silent blocks : No
Null samples used in CRC calculations : Yes
Used interface : Native Win32 interface for Win NT & 2000

Used output format : User Defined Encoder
Selected bitrate : 1024 kBit/s
Quality : High
Add ID3 tag : No
Command line compressor : C:\Program Files (x86)\Exact Audio Copy\FLAC\FLAC.EXE
Additional command line options : -6 -V -T "ARTIST=%artist%" -T "TITLE=%title%" -T "ALBUM=%albumtitle%" -T "DATE=%year%" -T "TRACKNUMBER=%tracknr%" -T "GENRE=%genre%" -T "COMMENT=%comment%" -T "BAND=%albuminterpret%" -T "ALBUMARTIST=%albuminterpret%" -T "COMPOSER=%composer%" %haslyrics%--tag-from-file=LYRICS="%lyricsfile%"%haslyrics% -T "DISCNUMBER=%cdnumber%" -T "TOTALDISCS=%totalcds%" -T "TOTALTRACKS=%numtracks%" %hascover%--picture="%coverfile%"%hascover% %source% -o %dest%


TOC of the extracted CD

Track | Start | Length | Start sector | End sector
---------------------------------------------------------
1 | 0:00.00 | 3:21.11 | 0 | 15085
2 | 3:21.11 | 3:32.16 | 15086 | 31001
3 | 6:53.27 | 3:57.74 | 31002 | 48850
4 | 10:51.26 | 3:26.17 | 48851 | 64317
5 | 14:17.43 | 2:59.13 | 64318 | 77755
6 | 17:16.56 | 4:30.00 | 77756 | 98005
7 | 21:46.56 | 5:01.04 | 98006 | 120584
8 | 26:47.60 | 4:49.73 | 120585 | 142332
9 | 31:37.58 | 5:24.69 | 142333 | 166701
10 | 37:02.52 | 4:18.46 | 166702 | 186097
11 | 41:21.23 | 4:00.26 | 186098 | 204123
12 | 45:21.49 | 3:32.05 | 204124 | 220028
13 | 48:53.54 | 3:20.19 | 220029 | 235047
14 | 52:13.73 | 3:28.49 | 235048 | 250696
15 | 55:42.47 | 3:19.58 | 250697 | 265679
16 | 59:02.30 | 3:05.57 | 265680 | 279611
17 | 62:08.12 | 3:59.61 | 279612 | 297597


Range status and errors

Selected range

Filename C:\mm\Kenny Chesney\2010 - Greatest Hits II [88697-65555-2]\Kenny Chesney - Greatest Hits II.wav

Peak level 99.9 %
Extraction speed 3.8 X
Range quality 100.0 %
Test CRC 834FE54D
Copy CRC 834FE54D
Copy OK

No errors occurred


AccurateRip summary

Track 1 accurately ripped (confidence 34) [8B6E0235] (AR v2)
Track 2 accurately ripped (confidence 34) [E1F5E15E] (AR v2)
Track 3 accurately ripped (confidence 34) [1C8440A0] (AR v2)
Track 4 accurately ripped (confidence 34) [0115665E] (AR v2)
Track 5 accurately ripped (confidence 34) [CA000A60] (AR v2)
Track 6 accurately ripped (confidence 34) [76161744] (AR v2)
Track 7 accurately ripped (confidence 34) [903DCCDF] (AR v2)
Track 8 accurately ripped (confidence 34) [1D184932] (AR v2)
Track 9 accurately ripped (confidence 34) [5216DD0C] (AR v2)
Track 10 accurately ripped (confidence 34) [4C830B11] (AR v2)
Track 11 accurately ripped (confidence 34) [F42DC569] (AR v2)
Track 12 accurately ripped (confidence 34) [E2CDE009] (AR v2)
Track 13 accurately ripped (confidence 34) [24508AE7] (AR v2)
Track 14 accurately ripped (confidence 34) [3170653F] (AR v2)
Track 15 accurately ripped (confidence 34) [FCD37737] (AR v2)
Track 16 accurately ripped (confidence 34) [71A46ADF] (AR v2)
Track 17 accurately ripped (confidence 34) [4BA4ACFA] (AR v2)

All tracks accurately ripped

End of status report

---- CUETools DB Plugin V2.1.6

[CTDB TOCID: VWMrDAfQAv6hLVc5HlnKr7YuGP4-] found
Submit result: VWMrDAfQAv6hLVc5HlnKr7YuGP4- has been confirmed
Track | CTDB Status
1 | (50/50) Accurately ripped
2 | (50/50) Accurately ripped
3 | (50/50) Accurately ripped
4 | (50/50) Accurately ripped
5 | (49/50) Accurately ripped
6 | (50/50) Accurately ripped
7 | (50/50) Accurately ripped
8 | (50/50) Accurately ripped
9 | (49/50) Accurately ripped
10 | (50/50) Accurately ripped
11 | (50/50) Accurately ripped
12 | (48/50) Accurately ripped
13 | (50/50) Accurately ripped
14 | (49/50) Accurately ripped
15 | (50/50) Accurately ripped
16 | (49/50) Accurately ripped
17 | (49/50) Accurately ripped
[свернуть]

Файл CUE

REM GENRE Country
REM DATE 2010
REM DISCID EB0F7F11
REM COMMENT "ExactAudioCopy v1.3"
PERFORMER "Kenny Chesney"
TITLE "Greatest Hits II"
REM COMPOSER ""
FILE "Kenny Chesney - Greatest Hits II.flac" WAVE
TRACK 01 AUDIO
TITLE "Out Last Night (previously unreleased)"
PERFORMER "Kenny Chesney"
REM COMPOSER ""
INDEX 01 00:00:00
TRACK 02 AUDIO
TITLE "Living in Fast Forward"
PERFORMER "Kenny Chesney"
REM COMPOSER ""
INDEX 00 03:19:58
INDEX 01 03:21:11
TRACK 03 AUDIO
TITLE "Young"
PERFORMER "Kenny Chesney"
REM COMPOSER ""
INDEX 00 06:53:04
INDEX 01 06:53:27
TRACK 04 AUDIO
TITLE "Summertime"
PERFORMER "Kenny Chesney"
REM COMPOSER ""
INDEX 00 10:49:05
INDEX 01 10:51:26
TRACK 05 AUDIO
TITLE "Down the Road"
PERFORMER "Kenny Chesney with Mac Mcanally"
REM COMPOSER ""
INDEX 01 14:17:43
TRACK 06 AUDIO
TITLE "Beer in Mexico"
PERFORMER "Kenny Chesney"
REM COMPOSER ""
INDEX 01 17:16:56
TRACK 07 AUDIO
TITLE "There Goes My Life"
PERFORMER "Kenny Chesney"
REM COMPOSER ""
INDEX 01 21:46:56
TRACK 08 AUDIO
TITLE "When the Sun Goes Down"
PERFORMER "Kenny Chesney with Uncle Kracker"
REM COMPOSER ""
INDEX 01 26:47:60
TRACK 09 AUDIO
TITLE "Anything But Mine"
PERFORMER "Kenny Chesney"
REM COMPOSER ""
INDEX 01 31:37:58
TRACK 10 AUDIO
TITLE "Be As You Are"
PERFORMER "Kenny Chesney"
REM COMPOSER ""
INDEX 01 37:02:52
TRACK 11 AUDIO
TITLE "I Go Back"
PERFORMER "Kenny Chesney"
REM COMPOSER ""
INDEX 01 41:21:23
TRACK 12 AUDIO
TITLE "No Shoes, No Shirt, No Problems"
PERFORMER "Kenny Chesney"
REM COMPOSER ""
INDEX 01 45:21:49
TRACK 13 AUDIO
TITLE "The Good Stuff"
PERFORMER "Kenny Chesney"
REM COMPOSER ""
INDEX 00 48:51:00
INDEX 01 48:53:54
TRACK 14 AUDIO
TITLE "Never Wanted Nothing More"
PERFORMER "Kenny Chesney"
REM COMPOSER ""
INDEX 00 52:13:23
INDEX 01 52:13:73
TRACK 15 AUDIO
TITLE "I'm Alive"
PERFORMER "Kenny Chesney with Dave Matthews"
REM COMPOSER ""
INDEX 00 55:41:52
INDEX 01 55:42:47
TRACK 16 AUDIO
TITLE "This is Our Moment"
PERFORMER "Kenny Chesney"
REM COMPOSER ""
INDEX 00 59:01:47
INDEX 01 59:02:30
TRACK 17 AUDIO
TITLE "Ain't Back Yet"
PERFORMER "Kenny Chesney"
REM COMPOSER ""
INDEX 00 62:07:68
INDEX 01 62:08:12
[свернуть]

Лог проверки качества

AUDIOCHECKER v2.0 beta (build 457) - by Dester -
~~~~~~~~~~~~~~~~~~~~~~~~~~~~~~~~~~
-=== НЕ РЕДАКТИРУЙТЕ ЭТОТ ФАЙЛ! ===-

Путь: ...\2010 - Greatest Hits II [88697-65555-2]

1 -=- Kenny Chesney - Greatest Hits II.flac -=- MPEG (95%)

137167108
[свернуть]

Спектр частот

[свернуть]

Скачать Kenny Chesney - Greatest Hits II



password: sergych
[свернуть]

Контрольная сумма (хеш-сумма) архива

MD5: 60f3eeeffd4a39c90078e695e32f8213
[свернуть]
My opinion of release: 10/10
__________________
TAIFUN.Wings of Soul

Вверх
2 пользователя(ей) сказали cпасибо:
johnsilver (07.04.2017), swint68 (07.04.2017)
Похожие темы
Тема Автор Раздел Ответов Последнее сообщение
Сборник Kenny Chesney - Super Hits sergych Country 0 13.02.2017 20:16
Альбом Kenny Chesney - Me And You sergych Country 0 11.01.2017 19:12
Альбом Kenny Chesney - Welcome To The Fishbowl sergych Country 3 27.11.2016 10:07
Сборник Kenny Chesney - Greatest Hits sergych Country 0 29.06.2016 18:33
Сборник Kenny G - Greatest Hits PUPOKIN Instrumental 0 19.07.2009 12:00


Метки
2010 , country , country rock , greatest hits ii , kenny chesney

Опции темы

Ваши права в разделе
Вы не можете создавать новые темы
Вы не можете отвечать в темах
Вы не можете прикреплять вложения
Вы не можете редактировать свои сообщения

Быстрый переход



Текущее время: 01:07. Часовой пояс GMT +3.
Powered by vBulletin® Version 3.8.10
Copyright ©2000 - 2018, vBulletin Solutions, Inc. Перевод: zCarot
© 2008 - 2018 Taifun With Song
Яндекс.Метрика