TAIFUN With Song
Вернуться   TAIFUN With Song > Music (обменник) > Rock > Pop Rock
Расширенный поиск
Pop Rock Поп-рок — жанр музыки, объединяющий элементы поп-музыки и рок-музыки. Песни характеризуются простой структурой, запоминающимися мелодиями, повторением музыкальных фраз (от попа), использованием в качестве основных инструментов электрогитар и ударных и агрессивным настроением (от рока).

А знаете ли Вы, что...
Какое музыкальное произведение планируется закончить исполнять к 2640 году?
«Среди произведений Джона Кейджа есть пьеса «Organ²/ASLSP (As SLow aS Possible)». Её типичное исполнение на фортепиано занимает от 20 до 70 минут, однако пояснение в скобках даёт указание играть пьесу настолько медленно, насколько это возможно. В связи с этим в 2001 году в церкви немецкого города Хальберштадт началось уникальное исполнение этой пьесы на органе, которое планируется завершить в 2640 году (через 639 лет после начала), а смена аккорда проходит примерно раз в год.»
 
Опции темы

  #1
Старый 06.04.2017, 19:12
sergych
Координатор
Досье
 
Аватар для sergych
Релиз Natalie Imbruglia - Counting Down The Days


2005 - Natalie Imbruglia - Counting Down The Days




Исполнитель/Artist: Natalie Imbruglia
Альбом/Album: Counting Down The Days
Год/Year: 2005
Жанр/Genre: Pop, pop rock, indie rock
Страна/Country: Европа
Рекорд-лейбл/Record label: Brightside Recordings / Sony Music
Номер в каталоге/Catalogue #: 82876683712
Формат/Format: Free Lossless Audio Codec (*.flac)
Качество/Quality: Lossless
Тип рипа/RIP Type: image+.cue
Продолжительность/Length: 00:43:15
Источник/Source: Собственный рип
Размер/Size: 398.4 MB

Сканы в комплекте

Треклист

01. Starting Today [0:02:56.04]
02. Shiver [0:03:44.54]
03. Satisfied [0:03:30.23]
04. Countind Down The Days [0:04:09.31]
05. I Won't Be Lost [0:03:53.14]
06. Slow Down [0:03:32.11]
07. Sanctuary [0:03:09.08]
08. Perfectly [0:03:24.16]
09. On The Run [0:03:38.10]
10. Come On Home [0:03:56.00]
11. When You're Sleeping [0:03:07.18]
12. Honeycomb Child [0:04:14.69]
[свернуть]

youtube.com

[свернуть]

EAC лог

Exact Audio Copy V1.3 from 2. September 2016

EAC extraction logfile from 5. April 2017, 21:24

Natalie Imbruglia / Counting Down The Days

Used drive : PLEXTOR DVDR PX-716A Adapter: 1 ID: 0

Read mode : Secure
Utilize accurate stream : Yes
Defeat audio cache : Yes
Make use of C2 pointers : No

Read offset correction : 30
Overread into Lead-In and Lead-Out : No
Fill up missing offset samples with silence : Yes
Delete leading and trailing silent blocks : No
Null samples used in CRC calculations : Yes
Used interface : Native Win32 interface for Win NT & 2000

Used output format : User Defined Encoder
Selected bitrate : 1024 kBit/s
Quality : High
Add ID3 tag : No
Command line compressor : C:\Program Files (x86)\Exact Audio Copy\FLAC\FLAC.EXE
Additional command line options : -6 -V -T "ARTIST=%artist%" -T "TITLE=%title%" -T "ALBUM=%albumtitle%" -T "DATE=%year%" -T "TRACKNUMBER=%tracknr%" -T "GENRE=%genre%" -T "COMMENT=%comment%" -T "BAND=%albuminterpret%" -T "ALBUMARTIST=%albuminterpret%" -T "COMPOSER=%composer%" %haslyrics%--tag-from-file=LYRICS="%lyricsfile%"%haslyrics% -T "DISCNUMBER=%cdnumber%" -T "TOTALDISCS=%totalcds%" -T "TOTALTRACKS=%numtracks%" %hascover%--picture="%coverfile%"%hascover% %source% -o %dest%


TOC of the extracted CD

Track | Start | Length | Start sector | End sector
---------------------------------------------------------
1 | 0:00.00 | 2:56.04 | 0 | 13203
2 | 2:56.04 | 3:44.54 | 13204 | 30057
3 | 6:40.58 | 3:30.23 | 30058 | 45830
4 | 10:11.06 | 4:09.31 | 45831 | 64536
5 | 14:20.37 | 3:53.14 | 64537 | 82025
6 | 18:13.51 | 3:32.11 | 82026 | 97936
7 | 21:45.62 | 3:09.08 | 97937 | 112119
8 | 24:54.70 | 3:24.16 | 112120 | 127435
9 | 28:19.11 | 3:38.10 | 127436 | 143795
10 | 31:57.21 | 3:56.00 | 143796 | 161495
11 | 35:53.21 | 3:07.18 | 161496 | 175538
12 | 39:00.39 | 4:14.69 | 175539 | 194657


Range status and errors

Selected range

Filename C:\mm\Natalie Imbruglia\2005 - Counting Down The Days [82876683712]\Natalie Imbruglia - Counting Down The Days.wav

Peak level 99.8 %
Extraction speed 11.8 X
Range quality 100.0 %
Test CRC F8E275F9
Copy CRC F8E275F9
Copy OK

No errors occurred


AccurateRip summary

Track 1 accurately ripped (confidence 155) [2A3AB243] (AR v2)
Track 2 accurately ripped (confidence 156) [1038D276] (AR v2)
Track 3 accurately ripped (confidence 155) [52CEDAAC] (AR v2)
Track 4 accurately ripped (confidence 156) [BFC94FD3] (AR v2)
Track 5 accurately ripped (confidence 155) [A60700F2] (AR v2)
Track 6 accurately ripped (confidence 155) [5461CFFE] (AR v2)
Track 7 accurately ripped (confidence 156) [04A51CC5] (AR v2)
Track 8 accurately ripped (confidence 155) [CC1EDFF8] (AR v2)
Track 9 accurately ripped (confidence 156) [75536705] (AR v2)
Track 10 accurately ripped (confidence 156) [BF64D25E] (AR v2)
Track 11 accurately ripped (confidence 155) [B75DB20D] (AR v2)
Track 12 accurately ripped (confidence 157) [8218DA8C] (AR v2)

All tracks accurately ripped

End of status report

---- CUETools DB Plugin V2.1.6

[CTDB TOCID: NLjHy82an13wWBcY8CT1RY1dm40-] found
Submit result: NLjHy82an13wWBcY8CT1RY1dm40- has been confirmed
Track | CTDB Status
1 | (190/192) Accurately ripped
2 | (189/192) Accurately ripped
3 | (190/192) Accurately ripped
4 | (189/192) Accurately ripped
5 | (189/192) Accurately ripped
6 | (189/192) Accurately ripped
7 | (190/192) Accurately ripped
8 | (190/192) Accurately ripped
9 | (189/192) Accurately ripped
10 | (188/192) Accurately ripped
11 | (189/192) Accurately ripped
12 | (187/192) Accurately ripped
[свернуть]

Файл CUE

REM GENRE Pop
REM DATE 2006
REM DISCID 950A230C
REM COMMENT "ExactAudioCopy v1.3"
PERFORMER "Natalie Imbruglia"
TITLE "Counting Down The Days"
REM COMPOSER ""
FILE "Natalie Imbruglia - Counting Down The Days.flac" WAVE
TRACK 01 AUDIO
TITLE "Starting Today"
PERFORMER "Natalie Imbruglia"
REM COMPOSER ""
INDEX 01 00:00:00
TRACK 02 AUDIO
TITLE "Shiver"
PERFORMER "Natalie Imbruglia"
REM COMPOSER ""
INDEX 00 02:55:73
INDEX 01 02:56:04
TRACK 03 AUDIO
TITLE "Satisfied"
PERFORMER "Natalie Imbruglia"
REM COMPOSER ""
INDEX 00 06:38:53
INDEX 01 06:40:58
TRACK 04 AUDIO
TITLE "Countind Down The Days"
PERFORMER "Natalie Imbruglia"
REM COMPOSER ""
INDEX 00 10:09:14
INDEX 01 10:11:06
TRACK 05 AUDIO
TITLE "I Won't Be Lost"
PERFORMER "Natalie Imbruglia"
REM COMPOSER ""
INDEX 00 14:20:25
INDEX 01 14:20:37
TRACK 06 AUDIO
TITLE "Slow Down"
PERFORMER "Natalie Imbruglia"
REM COMPOSER ""
INDEX 00 18:12:39
INDEX 01 18:13:51
TRACK 07 AUDIO
TITLE "Sanctuary"
PERFORMER "Natalie Imbruglia"
REM COMPOSER ""
INDEX 00 21:44:62
INDEX 01 21:45:62
TRACK 08 AUDIO
TITLE "Perfectly"
PERFORMER "Natalie Imbruglia"
REM COMPOSER ""
INDEX 00 24:54:42
INDEX 01 24:54:70
TRACK 09 AUDIO
TITLE "On The Run"
PERFORMER "Natalie Imbruglia"
REM COMPOSER ""
INDEX 00 28:17:37
INDEX 01 28:19:11
TRACK 10 AUDIO
TITLE "Come On Home"
PERFORMER "Natalie Imbruglia"
REM COMPOSER ""
INDEX 00 31:56:57
INDEX 01 31:57:21
TRACK 11 AUDIO
TITLE "When You're Sleeping"
PERFORMER "Natalie Imbruglia"
REM COMPOSER ""
INDEX 00 35:52:71
INDEX 01 35:53:21
TRACK 12 AUDIO
TITLE "Honeycomb Child"
PERFORMER "Natalie Imbruglia"
REM COMPOSER ""
INDEX 00 38:58:22
INDEX 01 39:00:39
[свернуть]

Лог проверки качества

AUDIOCHECKER v2.0 beta (build 457) - by Dester - [Ссылки могут видеть только зарегистрированные пользователи. ]
~~~~~~~~~~~~~~~~~~~~~~~~~~~~~~~~~~
-=== НЕ РЕДАКТИРУЙТЕ ЭТОТ ФАЙЛ! ===-

Путь: ...\2005 - Counting Down The Days [82876683712]

1 -=- Natalie Imbruglia - Counting Down The Days.flac -=- CDDA (100%)

74132548
[свернуть]

Спектр частот

[свернуть]

Скачать Natalie Imbruglia - Counting Down The Days

[Ссылки могут видеть только зарегистрированные пользователи. ]

password: sergych
[свернуть]

Контрольная сумма (хеш-сумма) архива

MD5: 4236ac7ff50f4298d89c3b0dc80e1fe5
[свернуть]
My opinion of release: 9/10
__________________
TAIFUN.Wings of Soul

Вверх
Пользователь сказал cпасибо:
swint68 (07.04.2017)
  #2
Старый 07.04.2017, 19:04
swint68
Меломан
Досье
 
Аватар для swint68
По умолчанию Re: Natalie Imbruglia - Counting Down The Days

Не хочется банально писать -- спасибо...
Много всяких разных СПАСИБОВ!
Я просто попискиваю от удовольствия.

Вверх
Пользователь сказал cпасибо:
sergych (08.04.2017)
  #3
Старый 08.04.2017, 16:06
sergych
Координатор
Досье
 
Аватар для sergych
По умолчанию Re: Natalie Imbruglia - Counting Down The Days

swint68, ещё пара Натали пока в пути, а в ближайших планах рипы Shakira, Janet Jackson, Paul McCartney, Seal, Andrea Bocelli, Queen и т.д., и т.п.
__________________
TAIFUN.Wings of Soul

Вверх
Пользователь сказал cпасибо:
swint68 (09.04.2017)
Похожие темы
Тема Автор Раздел Ответов Последнее сообщение
Альбом Natalie Imbruglia - Left of the Middle sergych Pop Rock 3 10.03.2017 19:37
Альбом Natalie Imbruglia - White Lilies Island sergych Pop Rock 0 08.06.2014 08:01
Релиз Clap Clap Riot - Counting Spins PUPOKIN Indie Rock 0 17.08.2012 09:51
Альбом Natalie Imbruglia - Greatest Hits PUPOKIN Зарубежная Поп-Музыка 0 02.07.2010 09:52
Релиз Natalie Imbruglia - Come To Life PUPOKIN Зарубежная Поп-Музыка 0 02.10.2009 10:57


Метки
2005 , counting down the days , indie rock , natalie imbruglia , pop , pop rock

Опции темы

Ваши права в разделе
Вы не можете создавать новые темы
Вы не можете отвечать в темах
Вы не можете прикреплять вложения
Вы не можете редактировать свои сообщения

Быстрый переход



Текущее время: 21:18. Часовой пояс GMT +3.
Powered by vBulletin® Version 3.8.7
Copyright ©2000 - 2017, vBulletin Solutions, Inc. Перевод: zCarot
© 2008 - 2017 Taifun With Song
Яндекс.Метрика