TAIFUN With Song
Навигация
Вернуться   TAIFUN With Song > Music (обменник) > Rock > Pop Rock
Расширенный поиск
Pop Rock Поп-рок — жанр музыки, объединяющий элементы поп-музыки и рок-музыки. Песни характеризуются простой структурой, запоминающимися мелодиями, повторением музыкальных фраз (от попа), использованием в качестве основных инструментов электрогитар и ударных и агрессивным настроением (от рока).

А знаете ли Вы, что...
Почему песня «А может быть ворона» из советского мультфильма была записана в ускоренном темпе?
«Песня «А может быть ворона» изначально должна была звучать в мультфильме «Пластилиновая ворона» в обычном темпе. Однако режиссёр Александр Татарский не проследил за временем записи, из-за чего песня не уложилась в отведённые 5 минут анимации. Решение было найдено простое — песню ускорили, в результате чего она приобрела своё знаменитое «мультяшное» звучание.»
 
Опции темы

  #1
Старый 05.04.2017, 20:06
sergych
Координатор
Досье
 
Аватар для sergych
Релиз Rod Stewart - Tom Traubert's Blues (Waltzing Matilda) {Single}


1992 - Rod Stewart - Tom Traubert's Blues (Waltzing Matilda) {Single}




Исполнитель/Artist: Rod Stewart
Альбом/Album: Tom Traubert's Blues (Waltzing Matilda)
Год/Year: 1992
Жанр/Genre: blues rock, pop rock
Страна/Country: Европа
Рекорд-лейбл/Record label: WEA International
Номер в каталоге/Catalogue #: W0144CD 9362-40718-2
Формат/Format: Free Lossless Audio Codec (*.flac)
Качество/Quality: Lossless
Тип рипа/RIP Type: image+.cue
Продолжительность/Length: 00:14:55
Источник/Source: Собственный рип
Размер/Size: 103.9 MB

Сканы в комплекте

Треклист

01. Tom Traubert's Blues (Waltzing Mathilda) [0:04:31.15]
02. No Holding Back [0:05:44.65]
03. Downtown Train [0:04:38.45]
[свернуть]

youtube.com

[свернуть]

Исполнители/Performers

Musicians
Tom Waits – vocals, piano
Jim Hughart – bass

Additional musicians
Alfred Lustgarten, George Kast, Harry Bluestone, Israel Baker, Marvin Limonick, Murray Adler, Nathan Kaproff, Nathan Ross, Sheldon Sanov – violin
Allan Harshman, David Schwartz, Sam Boghossian – viola
Jesse Ehrlich, Kathleen Lustgarten, Ray Kelley – cello
[свернуть]

EAC лог

Exact Audio Copy V1.3 from 2. September 2016

EAC extraction logfile from 5. April 2017, 19:49

Rod Stewart / Tom Traubert's Blues

Used drive : PLEXTOR DVDR PX-716A Adapter: 1 ID: 0

Read mode : Secure
Utilize accurate stream : Yes
Defeat audio cache : Yes
Make use of C2 pointers : No

Read offset correction : 30
Overread into Lead-In and Lead-Out : No
Fill up missing offset samples with silence : Yes
Delete leading and trailing silent blocks : No
Null samples used in CRC calculations : Yes
Used interface : Native Win32 interface for Win NT & 2000

Used output format : User Defined Encoder
Selected bitrate : 1024 kBit/s
Quality : High
Add ID3 tag : No
Command line compressor : C:\Program Files (x86)\Exact Audio Copy\FLAC\FLAC.EXE
Additional command line options : -6 -V -T "ARTIST=%artist%" -T "TITLE=%title%" -T "ALBUM=%albumtitle%" -T "DATE=%year%" -T "TRACKNUMBER=%tracknr%" -T "GENRE=%genre%" -T "COMMENT=%comment%" -T "BAND=%albuminterpret%" -T "ALBUMARTIST=%albuminterpret%" -T "COMPOSER=%composer%" %haslyrics%--tag-from-file=LYRICS="%lyricsfile%"%haslyrics% -T "DISCNUMBER=%cdnumber%" -T "TOTALDISCS=%totalcds%" -T "TOTALTRACKS=%numtracks%" %hascover%--picture="%coverfile%"%hascover% %source% -o %dest%


TOC of the extracted CD

Track | Start | Length | Start sector | End sector
---------------------------------------------------------
1 | 0:00.00 | 4:31.15 | 0 | 20339
2 | 4:31.15 | 5:44.65 | 20340 | 46204
3 | 10:16.05 | 4:38.45 | 46205 | 67099


Range status and errors

Selected range

Filename C:\mm\Rod Stewart\1992 - Tom Traubert's Blues (Waltzing Matilda) {Single} [W0144CD 9362-40718-2]\Rod Stewart - Tom Traubert's Blues.wav

Peak level 100.0 %
Extraction speed 2.8 X
Range quality 100.0 %
Test CRC 565E3FE3
Copy CRC 565E3FE3
Copy OK

No errors occurred


AccurateRip summary

Track 1 accurately ripped (confidence 4) [1E7687A8] (AR v2)
Track 2 accurately ripped (confidence 3) [5C2FFD14] (AR v2)
Track 3 accurately ripped (confidence 4) [B206385D] (AR v2)

All tracks accurately ripped

End of status report

---- CUETools DB Plugin V2.1.6

[CTDB TOCID: qf8OyOIIOPltLQLC_5mTk855Wh8-] found
Submit result: qf8OyOIIOPltLQLC_5mTk855Wh8- has been confirmed
Track | CTDB Status
1 | (1/1) Accurately ripped
2 | (1/1) Accurately ripped
3 | (1/1) Accurately ripped
[свернуть]

Файл CUE

REM GENRE Blues
REM DATE 1992
REM DISCID 1D037E03
REM COMMENT "ExactAudioCopy v1.3"
PERFORMER "Rod Stewart"
TITLE "Tom Traubert's Blues"
REM COMPOSER ""
FILE "Rod Stewart - Tom Traubert's Blues.flac" WAVE
TRACK 01 AUDIO
TITLE "Tom Traubert's Blues (Waltzing Mathilda)"
PERFORMER "Rod Stewart"
REM COMPOSER ""
INDEX 01 00:00:00
TRACK 02 AUDIO
TITLE "No Holding Back"
PERFORMER "Rod Stewart"
REM COMPOSER ""
INDEX 00 04:29:45
INDEX 01 04:31:15
TRACK 03 AUDIO
TITLE "Downtown Train"
PERFORMER "Rod Stewart"
REM COMPOSER ""
INDEX 00 10:14:40
INDEX 01 10:16:05
[свернуть]

Лог проверки качества

AUDIOCHECKER v2.0 beta (build 457) - by Dester -
~~~~~~~~~~~~~~~~~~~~~~~~~~~~~~~~~~
-=== НЕ РЕДАКТИРУЙТЕ ЭТОТ ФАЙЛ! ===-

Путь: ...\1992 - Tom Traubert's Blues (Waltzing Matilda) {Single} [W0144CD 9362-40718-2]

1 -=- Rod Stewart - Tom Traubert's Blues.flac -=- CDDA (100%)

224249252
[свернуть]

Спектр частот

[свернуть]

Скачать Rod Stewart - Tom Traubert's Blues (Waltzing Matilda) {Single}



password: sergych
[свернуть]

Контрольная сумма (хеш-сумма) архива

MD5: 20bc7dfc1de6f22828d48b8850c0bfcd
[свернуть]
My opinion of release: 10/10
__________________
TAIFUN.Wings of Soul

Вверх
Пользователь сказал cпасибо:
swint68 (05.04.2017)
Похожие темы
Тема Автор Раздел Ответов Последнее сообщение
Сингл Chris Rea - Heaven (Single) sergych Blues Rock 0 28.11.2013 18:41
Сингл Найк Борзов - Радоваться [Single] PUPOKIN Russian Rock 0 26.04.2010 10:19
Сингл БИ-2 - Christmas [Single] PUPOKIN Pop Rock 0 02.12.2009 13:26
Альбом Camel - The Single Factor sergych Progressive Rock 0 15.08.2008 21:22
Сингл Safri DUO - The 12 - Dj Single Alex_vn69 Instrumental 0 30.04.2008 15:38


Метки
1992 , blues rock , pop rock , rod stewart , tom traubert's blues (waltzing matilda)

Опции темы

Ваши права в разделе
Вы не можете создавать новые темы
Вы не можете отвечать в темах
Вы не можете прикреплять вложения
Вы не можете редактировать свои сообщения

Быстрый переход



Текущее время: 09:02. Часовой пояс GMT +3.
Powered by vBulletin® Version 3.8.10
Copyright ©2000 - 2017, vBulletin Solutions, Inc. Перевод: zCarot
© 2008 - 2017 Taifun With Song
Яндекс.Метрика