TAIFUN With Song
Jazz и Blues Гибкая ритмика, импровизационное начало, гармонии и мелодии - все это Jazz. Blues - жизнеутверждающая музыка, рожденная из душевной боли

А знаете ли Вы, что...
Какой рок-вокалист ещё в школьные годы откусил себе кусочек языка?
«Характерному тембру своего голоса солист Rolling Stones Мик Джаггер отчасти обязан баскетболу, которым он увлекался в школе. На одном из матчей Мик с такой силой врезался в соперника, что откусил себе кусочек языка. После этого он не говорил неделю, а когда заговорил, то понял, что голос изменился.»
 
Опции темы

  #1
Старый 31.03.2017, 20:53
sergych
Координатор
Досье
 
Аватар для sergych
Релиз Bucky and John Pizzarelli - Contrasts


1998 - Bucky and John Pizzarelli - Contrasts




Исполнитель/Artist: Bucky and John Pizzarelli
Альбом/Album: Contrasts
Год/Year: 1998
Жанр/Genre: Jazz, Swing
Рекорд-лейбл/Record label: Arbors Records
Номер в каталоге/Catalogue #: ARCD 19209
Формат/Format: Free Lossless Audio Codec (*.flac)
Качество/Quality: Lossless
Тип рипа/RIP Type: image+.cue
Продолжительность/Length: 01:03:19
Источник/Source: Собственный рип
Размер/Size: 271.2 MB

Сканы в комплекте

Треклист

01. Three Little Words [0:03:56.61]
02. Coquette [0:03:00.31]
03. Jersey Bounce [0:06:54.20]
04. The Bad and the Beautiful [0:02:30.11]
05. The Minute Samba [0:02:41.21]
06. Contrasts [0:06:05.21]
07. Test Pilot [0:02:37.58]
08. I Hadn't Anyone 'Till You / The Very Thought of You [0:04:33.23]
09. The Devil and the Deep Blue Sea [0:05:40.18]
10. Two Funky People [0:06:41.03]
11. Stage Fright [0:02:48.54]
12. Phantasmagoria [0:04:50.02]
13. My Romance [0:01:50.23]
14. Emily [0:04:41.71]
15. Guess I'll Go Back Home This Summer [0:02:17.51]
16. For Whom the Bell Tolls [0:02:09.36]
[свернуть]

Исполнители/Performers

Bucky Pizzarelli – guitar
John Pizzarelli – guitar
[свернуть]

EAC лог

Exact Audio Copy V1.3 from 2. September 2016

EAC extraction logfile from 27. March 2017, 0:39

The Pizzarelli, Bucky and John / Contrasts

Used drive : PLEXTOR DVDR PX-716A Adapter: 1 ID: 0

Read mode : Secure
Utilize accurate stream : Yes
Defeat audio cache : Yes
Make use of C2 pointers : No

Read offset correction : 30
Overread into Lead-In and Lead-Out : No
Fill up missing offset samples with silence : Yes
Delete leading and trailing silent blocks : No
Null samples used in CRC calculations : Yes
Used interface : Native Win32 interface for Win NT & 2000

Used output format : User Defined Encoder
Selected bitrate : 1024 kBit/s
Quality : High
Add ID3 tag : No
Command line compressor : C:\Program Files (x86)\Exact Audio Copy\FLAC\FLAC.EXE
Additional command line options : -6 -V -T "ARTIST=%artist%" -T "TITLE=%title%" -T "ALBUM=%albumtitle%" -T "DATE=%year%" -T "TRACKNUMBER=%tracknr%" -T "GENRE=%genre%" -T "COMMENT=%comment%" -T "BAND=%albuminterpret%" -T "ALBUMARTIST=%albuminterpret%" -T "COMPOSER=%composer%" %haslyrics%--tag-from-file=LYRICS="%lyricsfile%"%haslyrics% -T "DISCNUMBER=%cdnumber%" -T "TOTALDISCS=%totalcds%" -T "TOTALTRACKS=%numtracks%" %hascover%--picture="%coverfile%"%hascover% %source% -o %dest%


TOC of the extracted CD

Track | Start | Length | Start sector | End sector
---------------------------------------------------------
1 | 0:00.00 | 3:56.61 | 0 | 17760
2 | 3:56.61 | 3:00.31 | 17761 | 31291
3 | 6:57.17 | 6:54.20 | 31292 | 62361
4 | 13:51.37 | 2:30.11 | 62362 | 73622
5 | 16:21.48 | 2:41.21 | 73623 | 85718
6 | 19:02.69 | 6:05.21 | 85719 | 113114
7 | 25:08.15 | 2:37.58 | 113115 | 124947
8 | 27:45.73 | 4:33.23 | 124948 | 145445
9 | 32:19.21 | 5:40.18 | 145446 | 170963
10 | 37:59.39 | 6:41.03 | 170964 | 201041
11 | 44:40.42 | 2:48.54 | 201042 | 213695
12 | 47:29.21 | 4:50.02 | 213696 | 235447
13 | 52:19.23 | 1:50.23 | 235448 | 243720
14 | 54:09.46 | 4:41.71 | 243721 | 264866
15 | 58:51.42 | 2:17.51 | 264867 | 275192
16 | 61:09.18 | 2:09.36 | 275193 | 284903


Range status and errors

Selected range

Filename C:\mm\Bucky & John Pizzarelli\1998 - Contrasts [ARCD 19209]\The Pizzarelli, Bucky and John - Contrasts.wav

Peak level 95.6 %
Extraction speed 13.0 X
Range quality 99.9 %
Test CRC 3A7C67F2
Copy CRC 3A7C67F2
Copy OK

No errors occurred


AccurateRip summary

Track 1 accurately ripped (confidence 5) [F9AE7490] (AR v2)
Track 2 accurately ripped (confidence 5) [BE04BF02] (AR v2)
Track 3 accurately ripped (confidence 5) [B1693DB7] (AR v2)
Track 4 accurately ripped (confidence 5) [5724AF4D] (AR v2)
Track 5 accurately ripped (confidence 5) [D1ED766F] (AR v2)
Track 6 accurately ripped (confidence 5) [7F7A2EB5] (AR v2)
Track 7 accurately ripped (confidence 5) [0F1775FD] (AR v2)
Track 8 accurately ripped (confidence 5) [23436A65] (AR v2)
Track 9 accurately ripped (confidence 5) [A778A23C] (AR v2)
Track 10 accurately ripped (confidence 5) [4B9FE919] (AR v2)
Track 11 accurately ripped (confidence 5) [A5FADFF4] (AR v2)
Track 12 accurately ripped (confidence 5) [18BA62A9] (AR v2)
Track 13 accurately ripped (confidence 5) [DA514408] (AR v2)
Track 14 accurately ripped (confidence 5) [7C2F3E38] (AR v2)
Track 15 accurately ripped (confidence 5) [832FD48D] (AR v2)
Track 16 accurately ripped (confidence 5) [E4597505] (AR v2)

All tracks accurately ripped

End of status report

---- CUETools DB Plugin V2.1.6

[CTDB TOCID: MPxqIKjtEoAOzAdWwhvMsS9_79Q-] found
Submit result: MPxqIKjtEoAOzAdWwhvMsS9_79Q- has been confirmed
Track | CTDB Status
1 | (9/9) Accurately ripped
2 | (9/9) Accurately ripped
3 | (9/9) Accurately ripped
4 | (9/9) Accurately ripped
5 | (9/9) Accurately ripped
6 | (9/9) Accurately ripped
7 | (9/9) Accurately ripped
8 | (9/9) Accurately ripped
9 | (9/9) Accurately ripped
10 | (9/9) Accurately ripped
11 | (9/9) Accurately ripped
12 | (9/9) Accurately ripped
13 | (9/9) Accurately ripped
14 | (9/9) Accurately ripped
15 | (9/9) Accurately ripped
16 | (9/9) Accurately ripped
[свернуть]

Файл CUE

REM GENRE Jazz
REM DATE 1998
REM DISCID D50ED610
REM COMMENT "ExactAudioCopy v1.3"
PERFORMER "The Pizzarelli, Bucky and John"
TITLE "Contrasts"
REM COMPOSER ""
FILE "The Pizzarelli, Bucky and John - Contrasts.flac" WAVE
TRACK 01 AUDIO
TITLE "Three Little Words"
PERFORMER "The Pizzarelli, Bucky and John"
REM COMPOSER ""
FLAGS DCP
INDEX 01 00:00:00
TRACK 02 AUDIO
TITLE "Coquette"
PERFORMER "The Pizzarelli, Bucky and John"
REM COMPOSER ""
FLAGS DCP
INDEX 00 03:54:16
INDEX 01 03:56:61
TRACK 03 AUDIO
TITLE "Jersey Bounce"
PERFORMER "The Pizzarelli, Bucky and John"
REM COMPOSER ""
FLAGS DCP
INDEX 00 06:54:47
INDEX 01 06:57:17
TRACK 04 AUDIO
TITLE "The Bad and the Beautiful"
PERFORMER "The Pizzarelli, Bucky and John"
REM COMPOSER ""
FLAGS DCP
INDEX 00 13:48:67
INDEX 01 13:51:37
TRACK 05 AUDIO
TITLE "The Minute Samba"
PERFORMER "The Pizzarelli, Bucky and John"
REM COMPOSER ""
FLAGS DCP
INDEX 00 16:19:03
INDEX 01 16:21:48
TRACK 06 AUDIO
TITLE "Contrasts"
PERFORMER "The Pizzarelli, Bucky and John"
REM COMPOSER ""
FLAGS DCP
INDEX 00 19:00:24
INDEX 01 19:02:69
TRACK 07 AUDIO
TITLE "Test Pilot"
PERFORMER "The Pizzarelli, Bucky and John"
REM COMPOSER ""
FLAGS DCP
INDEX 00 25:05:45
INDEX 01 25:08:15
TRACK 08 AUDIO
TITLE "I Hadn't Anyone 'Till You/The Very Thought of You"
PERFORMER "The Pizzarelli, Bucky and John"
REM COMPOSER ""
FLAGS DCP
INDEX 00 27:43:28
INDEX 01 27:45:73
TRACK 09 AUDIO
TITLE "The Devil and the Deep Blue Sea"
PERFORMER "The Pizzarelli, Bucky and John"
REM COMPOSER ""
FLAGS DCP
INDEX 00 32:16:51
INDEX 01 32:19:21
TRACK 10 AUDIO
TITLE "Two Funky People"
PERFORMER "The Pizzarelli, Bucky and John"
REM COMPOSER ""
FLAGS DCP
INDEX 00 37:56:69
INDEX 01 37:59:39
TRACK 11 AUDIO
TITLE "Stage Fright"
PERFORMER "The Pizzarelli, Bucky and John"
REM COMPOSER ""
FLAGS DCP
INDEX 00 44:37:73
INDEX 01 44:40:42
TRACK 12 AUDIO
TITLE "Phantasmagoria"
PERFORMER "The Pizzarelli, Bucky and John"
REM COMPOSER ""
FLAGS DCP
INDEX 00 47:26:51
INDEX 01 47:29:21
TRACK 13 AUDIO
TITLE "My Romance"
PERFORMER "The Pizzarelli, Bucky and John"
REM COMPOSER ""
FLAGS DCP
INDEX 00 52:16:54
INDEX 01 52:19:23
TRACK 14 AUDIO
TITLE "Emily"
PERFORMER "The Pizzarelli, Bucky and John"
REM COMPOSER ""
FLAGS DCP
INDEX 00 54:07:01
INDEX 01 54:09:46
TRACK 15 AUDIO
TITLE "Guess I'll Go Back Home This Summer"
PERFORMER "The Pizzarelli, Bucky and John"
REM COMPOSER ""
FLAGS DCP
INDEX 00 58:48:72
INDEX 01 58:51:42
TRACK 16 AUDIO
TITLE "For Whom the Bell Tolls"
PERFORMER "The Pizzarelli, Bucky and John"
REM COMPOSER ""
FLAGS DCP
INDEX 00 61:06:48
INDEX 01 61:09:18
[свернуть]

Лог проверки качества

AUDIOCHECKER v2.0 beta (build 457) - by Dester - [Ссылки могут видеть только зарегистрированные пользователи. ]
~~~~~~~~~~~~~~~~~~~~~~~~~~~~~~~~~~
-=== НЕ РЕДАКТИРУЙТЕ ЭТОТ ФАЙЛ! ===-

Путь: ...\1998 - Contrasts [ARCD 19209]

1 -=- The Pizzarelli, Bucky and John - Contrasts.flac -=- CDDA (100%)

60035604
[свернуть]

Спектр частот

[свернуть]

Скачать Bucky and John Pizzarelli - Contrasts

[Ссылки могут видеть только зарегистрированные пользователи. ]

password: sergych
[свернуть]

Контрольная сумма (хеш-сумма) архива

MD5: 43c043651351fc0a5589dd58a7356385
[свернуть]
My opinion of release: 10/10
__________________
TAIFUN.Wings of Soul

Вверх
2 пользователя(ей) сказали cпасибо:
johnsilver (01.04.2017), swint68 (31.03.2017)
Похожие темы
Тема Автор Раздел Ответов Последнее сообщение
Альбом John Pizzarelli - One Night With You. The John Pizzarelli Collection sergych Jazz и Blues 0 20.12.2014 08:45
Альбом John Pizzarelli - All Of Me sergych Jazz и Blues 0 27.03.2014 18:40
Альбом Bucky And John Pizzarelli - At The Vineyard Theatre sergych Jazz и Blues 0 17.10.2013 19:45
Сборник John Pizzarelli - The Best of John Pizzarelli. I Like Jersey Best sergych Jazz и Blues 0 16.10.2013 21:40
Альбом Bucky and John Pizzarelli - Generations sergych Jazz и Blues 0 14.06.2010 09:08


Метки
1998 , bucky and john pizzarelli , contemporary jazz , contrasts , smooth jazz

Опции темы

Ваши права в разделе
Вы не можете создавать новые темы
Вы не можете отвечать в темах
Вы не можете прикреплять вложения
Вы не можете редактировать свои сообщения

Быстрый переход



Текущее время: 08:18. Часовой пояс GMT +3.
Powered by vBulletin® Version 3.8.7
Copyright ©2000 - 2017, vBulletin Solutions, Inc. Перевод: zCarot
© 2008 - 2017 Taifun With Song
Яндекс.Метрика