TAIFUN With Song
Jazz и Blues Гибкая ритмика, импровизационное начало, гармонии и мелодии - все это Jazz. Blues - жизнеутверждающая музыка, рожденная из душевной боли

А знаете ли Вы, что...
Какой музыкант однажды спел о том, что забыл слова этой песни?
«Однажды на концерте во Франции солист исландской группы Sigur Rós Йонси забыл текст песни. Не остановившись, он сымпровизировал под ту же музыку: «Чёрт, я забыл слова. Но это ничего. Потому что я во Франции, где никто не поймёт».»
 
Опции темы

  #1
Старый 26.03.2017, 07:34
igoryok63
Меломан
Досье
 
Аватар для igoryok63
По умолчанию Delta Generators - Hard River to Row


2010 - Delta Generators - Hard River to Row (2010)




Исполнитель/Artist: Delta Generators
Альбом/Album: Hard River to Row
Год/Year: 2010
Жанр/Genre: Blues
Страна/Country: Соединённые Штаты
Рекорд-лейбл/Record label: Delta Generators Music
Формат/Format: Free Lossless Audio Codec (*.flac)
Качество/Quality: Lossless
Тип рипа/RIP Type: image+.cue
Продолжительность/Length: 00:40:03
Размер/Size: 280.6 MB


Треклист

01. Hard River To Row - 2:42
02. Too Many Cooks - 3:07
03. Field And Plow - 2:56
04. Canebrake - 3:06
05. Someday - 3:37
06. Give Me Some - 2:57
07. Let The Boy Down Easy - 2:24
08. Don't Uncork The Bottle - 2:44
09. Love You Tight - 3:09
10. Hardly Working - 2:13
11. Follow You Down - 2:02
12. Reverend's Daughter - 2:50
13. Coming Home - 3:07
14. Hard River Blues - 3:09
[свернуть]

EAC лог

Exact Audio Copy V1.1 from 23. June 2015

EAC extraction logfile from 28. May 2016, 10:26

Delta Generators / Hard River to Row

Used drive : HL-DT-STDVDRAM GSA-H44N Adapter: 1 ID: 1

Read mode : Secure
Utilize accurate stream : Yes
Defeat audio cache : Yes
Make use of C2 pointers : No

Read offset correction : 667
Overread into Lead-In and Lead-Out : No
Fill up missing offset samples with silence : Yes
Delete leading and trailing silent blocks : No
Null samples used in CRC calculations : Yes
Used interface : Native Win32 interface for Win NT & 2000

Used output format : User Defined Encoder
Selected bitrate : 1024 kBit/s
Quality : High
Add ID3 tag : No
Command line compressor : C:\Program Files (x86)\Exact Audio Copy\FLAC\FLAC.EXE
Additional command line options : V -4 -T "Date=%year%" -T "Genre=%genre%" %source%


TOC of the extracted CD

Track | Start | Length | Start sector | End sector
---------------------------------------------------------
1 | 0:00.00 | 2:49.15 | 0 | 12689
2 | 2:49.15 | 3:14.45 | 12690 | 27284
3 | 6:03.60 | 3:03.00 | 27285 | 41009
4 | 9:06.60 | 3:13.45 | 41010 | 55529
5 | 12:20.30 | 3:43.60 | 55530 | 72314
6 | 16:04.15 | 3:04.00 | 72315 | 86114
7 | 19:08.15 | 2:31.00 | 86115 | 97439
8 | 21:39.15 | 2:51.15 | 97440 | 110279
9 | 24:30.30 | 3:15.60 | 110280 | 124964
10 | 27:46.15 | 2:20.30 | 124965 | 135494
11 | 30:06.45 | 2:09.45 | 135495 | 145214
12 | 32:16.15 | 2:57.15 | 145215 | 158504
13 | 35:13.30 | 3:14.45 | 158505 | 173099
14 | 38:28.00 | 3:12.13 | 173100 | 187512


Range status and errors

Selected range

Filename E:\Рабочая\Blues music\Delta Generators - Hard River to Row (2010)\Delta Generators - Hard River to Row.wav

Peak level 100.0 %
Extraction speed 6.8 X
Range quality 100.0 %
Copy CRC C42CE77E
Copy OK

No errors occurred

End of status report
[свернуть]

Лог проверки качества

AUDIOCHECKER v2.0 beta (build 457) - by Dester - [Ссылки могут видеть только зарегистрированные пользователи. ]
~~~~~~~~~~~~~~~~~~~~~~~~~~~~~~~~~~
-=== DO NOT EDIT THIS FILE! ===-

Path: ...\Delta Generators - Hard River to Row (2010)

1 -=- Delta Generators - Hard River to Row.flac -=- CDDA (100%)

114935780
[свернуть]

Скачать Delta Generators - Hard River to Row (2010)

[Ссылки могут видеть только зарегистрированные пользователи. ]
[свернуть]
My opinion of release: 10/10

Release info RInfo

Password in archive: nota304

Вверх
Пользователь сказал cпасибо:
sergych (26.03.2017)
Похожие темы
Тема Автор Раздел Ответов Последнее сообщение
Delta Generators - Get On The Horse igoryok63 Jazz и Blues 0 26.03.2017 07:29
Релиз Welcome Back Delta – Sucker PUPOKIN Hard Rock 0 13.08.2016 13:40
Альбом Delta Moon - Black Cat Oil PUPOKIN Blues Rock 0 09.06.2012 09:53
Релиз Mikael Delta - Tech Me Away PUPOKIN Deep House 0 10.04.2010 09:22
The Delta - Minusman PUPOKIN Techno 0 07.11.2008 19:51


Метки
2010 , blues , delta generators , hard river to row

Опции темы

Ваши права в разделе
Вы не можете создавать новые темы
Вы не можете отвечать в темах
Вы не можете прикреплять вложения
Вы не можете редактировать свои сообщения

Быстрый переход



Текущее время: 22:10. Часовой пояс GMT +3.
Powered by vBulletin® Version 3.8.7
Copyright ©2000 - 2017, vBulletin Solutions, Inc. Перевод: zCarot
© 2008 - 2017 Taifun With Song
Яндекс.Метрика