TAIFUN With Song
Навигация
Jazz и Blues Гибкая ритмика, импровизационное начало, гармонии и мелодии - все это Jazz. Blues - жизнеутверждающая музыка, рожденная из душевной боли

А знаете ли Вы, что...
Какова самая низкая нота, которую может взять человек?
«Американский певец Тим Стормс обладает самым широким в мире вокальным диапазоном. Ещё один зафиксированный рекорд, принадлежащий Стормсу — самая низкая нота, взятая человеком. Эта нота частотой 0,189 Гц — соль на восемь октав ниже, чем самая низкая соль на фортепиано. Данный звук очень далеко отстоит от порога человеческого восприятия (для обычного человека — 16 Гц), а рекорд фиксировался специальными акустическими приборами.»
 
Опции темы

  #1
Старый 26.03.2017, 08:29
igoryok63
Меломан
Досье
 
Аватар для igoryok63
По умолчанию Delta Generators - Get On The Horse


2014 - Delta Generators - Get On The Horse (2014)




Исполнитель/Artist: Delta Generators
Альбом/Album: Get On The Horse
Год/Year: 2014
Жанр/Genre: Blues
Страна/Country: Соединённые Штаты
Рекорд-лейбл/Record label: Delta Generators Music
Формат/Format: Free Lossless Audio Codec (*.flac)
Качество/Quality: Lossless
Тип рипа/RIP Type: image+.cue
Продолжительность/Length: 00:49:50
Размер/Size: 342.2 MB


Треклист

01. Whole Lotta Whiskey - 3:14
02. Get On The Horse - 4:00
03. It's Been Hard - 3:31
04. Hot Tickets! - 3:44
05. Spider Bite - 3:50
06. Night Of The Johnstown Flood - 6:55
07. Against The Cold - 2:55
08. Rose For Rosa Lee - 3:20
09. Bulldog Sick Of Rain - 2:30
10. Home Of The Rustling Chain - 2:58
11. Diablo Rock - 2:47
12. Blood Sugar Baby - 3:40
13. The More I Find Out ( The Less I Want To Know) - 6:26
[свернуть]

EAC лог

Exact Audio Copy V1.1 from 23. June 2015

EAC extraction logfile from 29. May 2016, 7:32

Delta Generators / Get On The Horse

Used drive : HL-DT-STDVDRAM GSA-H44N Adapter: 1 ID: 1

Read mode : Secure
Utilize accurate stream : Yes
Defeat audio cache : Yes
Make use of C2 pointers : No

Read offset correction : 667
Overread into Lead-In and Lead-Out : No
Fill up missing offset samples with silence : Yes
Delete leading and trailing silent blocks : No
Null samples used in CRC calculations : Yes
Used interface : Native Win32 interface for Win NT & 2000

Used output format : User Defined Encoder
Selected bitrate : 1024 kBit/s
Quality : High
Add ID3 tag : No
Command line compressor : C:\Program Files (x86)\Exact Audio Copy\FLAC\FLAC.EXE
Additional command line options : V -4 -T "Date=%year%" -T "Genre=%genre%" %source%


TOC of the extracted CD

Track | Start | Length | Start sector | End sector
---------------------------------------------------------
1 | 0:00.00 | 3:20.00 | 0 | 14999
2 | 3:20.00 | 4:06.15 | 15000 | 33464
3 | 7:26.15 | 3:37.30 | 33465 | 49769
4 | 11:03.45 | 3:50.45 | 49770 | 67064
5 | 14:54.15 | 3:56.30 | 67065 | 84794
6 | 18:50.45 | 7:01.60 | 84795 | 116429
7 | 25:52.30 | 3:01.60 | 116430 | 130064
8 | 28:54.15 | 3:26.15 | 130065 | 145529
9 | 32:20.30 | 2:36.45 | 145530 | 157274
10 | 34:57.00 | 3:04.15 | 157275 | 171089
11 | 38:01.15 | 2:53.30 | 171090 | 184094
12 | 40:54.45 | 3:46.45 | 184095 | 201089
13 | 44:41.15 | 6:28.33 | 201090 | 230222


Range status and errors

Selected range

Filename E:\Рабочая\Blues music\Delta Generators - Get On The Horse (2014)\Delta Generators - Get On The Horse.wav

Peak level 100.0 %
Extraction speed 7.1 X
Range quality 100.0 %
Copy CRC D9C59181
Copy OK

No errors occurred

End of status report
[свернуть]

Лог проверки качества

AUDIOCHECKER v2.0 beta (build 457) - by Dester -
~~~~~~~~~~~~~~~~~~~~~~~~~~~~~~~~~~
-=== DO NOT EDIT THIS FILE! ===-

Path: ...\Delta Generators - Get On The Horse (2014)

1 -=- Delta Generators - Get On The Horse.flac -=- CDDA (100%)

266939028
[свернуть]

Скачать Delta Generators - Get On The Horse (2014)

[свернуть]
Release info RInfo

Password in archive: nota304

Вверх
Пользователь сказал cпасибо:
sergych (26.03.2017)
Похожие темы
Тема Автор Раздел Ответов Последнее сообщение
Альбом Delta Generators - Hard River to Row igoryok63 Jazz и Blues 0 26.03.2017 08:34
Релиз Welcome Back Delta – Sucker PUPOKIN Hard Rock 0 13.08.2016 14:40
Альбом Delta Moon - Black Cat Oil PUPOKIN Blues Rock 0 09.06.2012 09:53
Релиз Mikael Delta - Tech Me Away PUPOKIN Deep House 0 10.04.2010 09:22
The Delta - Minusman PUPOKIN Techno 0 07.11.2008 19:51


Метки
2014 , blues , delta generators , get on the horse

Опции темы

Ваши права в разделе
Вы не можете создавать новые темы
Вы не можете отвечать в темах
Вы не можете прикреплять вложения
Вы не можете редактировать свои сообщения

Быстрый переход



Текущее время: 23:11. Часовой пояс GMT +3.
Powered by vBulletin® Version 3.8.10
Copyright ©2000 - 2017, vBulletin Solutions, Inc. Перевод: zCarot
© 2008 - 2017 Taifun With Song
Яндекс.Метрика