TAIFUN With Song
Навигация
Вернуться   TAIFUN With Song > Music (обменник) > Другие направления музыки > R&B
Расширенный поиск
R&B Ссылки на музыку в этом стиле

А знаете ли Вы, что...
Какой отработанный медицинский материал использовался советскими изготовителями кустарных пластинок?
«В СССР для изготовления кустарных пластинок, на которые записывалась нелегальная музыка, широко использовали старые рентгеновские снимки. Их называли «пластинки на костях» или «пластинки на рёбрах». Этот материал обходился бесплатно, медперсонал даже благодарил тех, кто помогал разгружать архивы.»
 
Опции темы

  #1
Старый 24.03.2017, 19:04
sergych
Координатор
Досье
 
Аватар для sergych
Релиз Boyz II Men - Legacy: The Greatest Hits Collection


2001 - Boyz II Men - Legacy: The Greatest Hits Collection




Исполнитель/Artist: Boyz II Men
Альбом/Album: Legacy: The Greatest Hits Collection
Год/Year: 2001
Жанр/Genre: R&B, pop, soul, hip hop
Страна/Country: Германия
Рекорд-лейбл/Record label: Universal Music
Номер в каталоге/Catalogue #: 016 888-2
Формат/Format: Free Lossless Audio Codec (*.flac)
Качество/Quality: Lossless
Тип рипа/RIP Type: image+.cue
Продолжительность/Length: 00:57:34
Источник/Source: Собственный рип
Размер/Size: 423.9 MB

Сканы в комплекте

Треклист

01. Motownphilly [0:03:56.13]
02. It's So Hard To Say Goodbye To Yesterday [0:02:47.72]
03. End Of The Road [0:05:49.48]
04. In The Still Of The Night (I'll Remember) [0:02:49.20]
05. Boyz II Men with LL Cool J / Hey Lover [0:04:44.64]
06. I'll Make Love To You [0:04:04.60]
07. On Bended Knee [0:05:29.61]
08. Water Runs Dry [0:03:20.74]
09. Boyz II Men with Mariah Carey / One Sweet Day [0:04:39.33]
10. Doin' Just Fine [0:05:30.08]
11. 4 Seasons Of Loneliness [0:04:52.57]
12. A Song For Mama [0:05:01.68]
13. Pass You By [0:04:26.37]
[свернуть]

youtube.com

[свернуть]

EAC лог

Exact Audio Copy V1.3 from 2. September 2016

EAC extraction logfile from 24. March 2017, 18:25

Boyz II Men / Legacy: The Greatest Hits Collection

Used drive : PLEXTOR DVDR PX-716A Adapter: 1 ID: 0

Read mode : Secure
Utilize accurate stream : Yes
Defeat audio cache : Yes
Make use of C2 pointers : No

Read offset correction : 30
Overread into Lead-In and Lead-Out : No
Fill up missing offset samples with silence : Yes
Delete leading and trailing silent blocks : No
Null samples used in CRC calculations : Yes
Used interface : Native Win32 interface for Win NT & 2000

Used output format : User Defined Encoder
Selected bitrate : 1024 kBit/s
Quality : High
Add ID3 tag : No
Command line compressor : C:\Program Files (x86)\Exact Audio Copy\FLAC\FLAC.EXE
Additional command line options : -6 -V -T "ARTIST=%artist%" -T "TITLE=%title%" -T "ALBUM=%albumtitle%" -T "DATE=%year%" -T "TRACKNUMBER=%tracknr%" -T "GENRE=%genre%" -T "COMMENT=%comment%" -T "BAND=%albuminterpret%" -T "ALBUMARTIST=%albuminterpret%" -T "COMPOSER=%composer%" %haslyrics%--tag-from-file=LYRICS="%lyricsfile%"%haslyrics% -T "DISCNUMBER=%cdnumber%" -T "TOTALDISCS=%totalcds%" -T "TOTALTRACKS=%numtracks%" %hascover%--picture="%coverfile%"%hascover% %source% -o %dest%


TOC of the extracted CD

Track | Start | Length | Start sector | End sector
---------------------------------------------------------
1 | 0:00.00 | 3:56.13 | 0 | 17712
2 | 3:56.13 | 2:47.72 | 17713 | 30309
3 | 6:44.10 | 5:49.48 | 30310 | 56532
4 | 12:33.58 | 2:49.20 | 56533 | 69227
5 | 15:23.03 | 4:44.64 | 69228 | 90591
6 | 20:07.67 | 4:04.60 | 90592 | 108951
7 | 24:12.52 | 5:29.61 | 108952 | 133687
8 | 29:42.38 | 3:20.74 | 133688 | 148761
9 | 33:03.37 | 4:39.33 | 148762 | 169719
10 | 37:42.70 | 5:30.08 | 169720 | 194477
11 | 43:13.03 | 4:52.57 | 194478 | 216434
12 | 48:05.60 | 5:01.68 | 216435 | 239077
13 | 53:07.53 | 4:26.37 | 239078 | 259064
14 | 60:06.15 | 14:07.25 | 270465 | 334014


Range status and errors

Selected range

Filename C:\mm\Boyz II Men\2001 - Legacy. The Greatest Hits Collection [016 888-2]\Boyz II Men - Legacy. The Greatest Hits Collection.wav

Peak level 98.8 %
Extraction speed 10.7 X
Range quality 100.0 %
Test CRC 23EBA4B9
Copy CRC 23EBA4B9
Copy OK

No errors occurred


AccurateRip summary

Track 1 accurately ripped (confidence 5) [0429AF9A] (AR v2)
Track 2 accurately ripped (confidence 5) [D50B97DE] (AR v2)
Track 3 accurately ripped (confidence 5) [1FF00589] (AR v2)
Track 4 accurately ripped (confidence 5) [DFB30460] (AR v2)
Track 5 accurately ripped (confidence 5) [F3597AA1] (AR v2)
Track 6 accurately ripped (confidence 5) [64D532FE] (AR v2)
Track 7 accurately ripped (confidence 5) [152EE2F4] (AR v2)
Track 8 accurately ripped (confidence 5) [EC0B5820] (AR v2)
Track 9 accurately ripped (confidence 5) [689B1225] (AR v2)
Track 10 accurately ripped (confidence 5) [11C90E7F] (AR v2)
Track 11 accurately ripped (confidence 5) [F681CDEB] (AR v2)
Track 12 accurately ripped (confidence 5) [4F68DCB8] (AR v2)
Track 13 accurately ripped (confidence 5) [E77DD583] (AR v2)

All tracks accurately ripped

End of status report

---- CUETools DB Plugin V2.1.6

[CTDB TOCID: 8MiIc0eH2b5FjXUtbhKDMU4iAHM-] found
Submit result: 8MiIc0eH2b5FjXUtbhKDMU4iAHM- has been confirmed
Track | CTDB Status
1 | ( 22/128) Accurately ripped, or (12/128) differs in 4012 samples @00:03:01-00:03:05, or (41/128) differs in 4012 samples @00:03:01-00:03:05, or (26/128) differs in 4012 samples @00:03:01-00:03:05, or (4/128) differs in 4021 samples @00:03:01-00:03:05,02:08:56, or (4/128) differs in 4012 samples @00:03:01-00:03:05, or (5/128) differs in 4012 samples @00:03:01-00:03:05, or (4/128) differs in 4012 samples @00:03:01-00:03:05
2 | (125/128) Accurately ripped
3 | (126/128) Accurately ripped
4 | ( 55/128) Accurately ripped, or (12/128) differs in 9 samples @00:39:28, or (41/128) differs in 9 samples @00:39:28, or (4/128) differs in 9 samples @00:39:28, or (4/128) differs in 9 samples @00:39:28, or (4/128) differs in 9 samples @00:39:28
5 | ( 54/128) Accurately ripped, or (12/128) differs in 9 samples @00:17:45, or (41/128) differs in 9 samples @00:17:45, or (4/128) differs in 9 samples @00:17:45, or (4/128) differs in 9 samples @00:17:45, or (4/128) differs in 9 samples @00:17:45
6 | ( 55/128) Accurately ripped, or (12/128) differs in 27 samples @00:58:11,01:13:30,01:55:43, or (41/128) differs in 27 samples @00:58:11,01:13:30,01:55:43, or (4/128) differs in 9 samples @00:58:11, or (4/128) differs in 27 samples @00:58:11,01:13:30,01:55:43, or (4/128) differs in 9 samples @00:58:11
7 | ( 68/128) Accurately ripped, or (12/128) differs in 9 samples @01:19:65, or (41/128) differs in 9 samples @01:19:65, or (4/128) differs in 9 samples @01:19:65
8 | (119/128) Accurately ripped, or (4/128) differs in 9 samples @02:17:06
9 | (125/128) Accurately ripped
10 | ( 53/128) Accurately ripped, or (12/128) differs in 9 samples @02:16:03, or (41/128) differs in 9 samples @02:16:03, or (4/128) differs in 9 samples @02:16:03, or (4/128) differs in 9 samples @02:16:03, or (4/128) differs in 9 samples @02:16:03
11 | (121/128) Accurately ripped, or (4/128) differs in 9 samples @01:57:72
12 | ( 66/128) Accurately ripped, or (12/128) differs in 18 samples @01:20:11,01:56:61, or (41/128) differs in 18 samples @01:20:11,01:56:61, or (4/128) differs in 18 samples @01:20:11,01:56:61
13 | ( 55/128) Accurately ripped, or (12/128) differs in 9 samples @03:00:00, or (41/128) differs in 9 samples @03:00:00, or (4/128) differs in 9 samples @03:00:00, or (4/128) differs in 9 samples @03:00:00, or (4/128) differs in 9 samples @03:00:00
If you are sure that your rip contains errors, you can use CUETools to repair it.
[свернуть]

Файл CUE

REM GENRE R&B
REM DATE 2001
REM DISCID E111650E
REM COMMENT "ExactAudioCopy v1.3"
PERFORMER "Boyz II Men"
TITLE "Legacy: The Greatest Hits Collection"
REM COMPOSER ""
FILE "Boyz II Men - Legacy. The Greatest Hits Collection.flac" WAVE
TRACK 01 AUDIO
TITLE "Motownphilly"
PERFORMER "Boyz II Men"
REM COMPOSER ""
INDEX 01 00:00:00
TRACK 02 AUDIO
TITLE "It's So Hard To Say Goodbye To Yesterday"
PERFORMER "Boyz II Men"
REM COMPOSER ""
INDEX 01 03:56:13
TRACK 03 AUDIO
TITLE "End Of The Road"
PERFORMER "Boyz II Men"
REM COMPOSER ""
INDEX 01 06:44:10
TRACK 04 AUDIO
TITLE "In The Still Of The Night (I'll Remember)"
PERFORMER "Boyz II Men"
REM COMPOSER ""
INDEX 01 12:33:58
TRACK 05 AUDIO
TITLE "Hey Lover"
PERFORMER "Boyz II Men with LL Cool J"
REM COMPOSER ""
INDEX 01 15:23:03
TRACK 06 AUDIO
TITLE "I'll Make Love To You"
PERFORMER "Boyz II Men"
REM COMPOSER ""
INDEX 01 20:07:67
TRACK 07 AUDIO
TITLE "On Bended Knee"
PERFORMER "Boyz II Men"
REM COMPOSER ""
INDEX 01 24:12:52
TRACK 08 AUDIO
TITLE "Water Runs Dry"
PERFORMER "Boyz II Men"
REM COMPOSER ""
INDEX 01 29:42:38
TRACK 09 AUDIO
TITLE "One Sweet Day"
PERFORMER "Boyz II Men with Mariah Carey"
REM COMPOSER ""
INDEX 01 33:03:37
TRACK 10 AUDIO
TITLE "Doin' Just Fine"
PERFORMER "Boyz II Men"
REM COMPOSER ""
INDEX 01 37:42:70
TRACK 11 AUDIO
TITLE "4 Seasons Of Loneliness"
PERFORMER "Boyz II Men"
REM COMPOSER ""
INDEX 01 43:13:03
TRACK 12 AUDIO
TITLE "A Song For Mama"
PERFORMER "Boyz II Men"
REM COMPOSER ""
INDEX 01 48:05:60
TRACK 13 AUDIO
TITLE "Pass You By"
PERFORMER "Boyz II Men"
REM COMPOSER ""
INDEX 01 53:07:53
[свернуть]

Лог проверки качества

AUDIOCHECKER v2.0 beta (build 457) - by Dester -
~~~~~~~~~~~~~~~~~~~~~~~~~~~~~~~~~~
-=== НЕ РЕДАКТИРУЙТЕ ЭТОТ ФАЙЛ! ===-

Путь: ...\2001 - Legacy. The Greatest Hits Collection [016 888-2]

1 -=- Boyz II Men - Legacy. The Greatest Hits Collection.flac -=- CDDA (100%)

51550500
[свернуть]

Спектр частот

[свернуть]

Скачать Boyz II Men - Legacy: The Greatest Hits Collection



password: sergych
[свернуть]

Контрольная сумма (хеш-сумма) архива

MD5: 327bc689754aea4a61b2e025285be70d
[свернуть]
My opinion of release: 10/10

Release info RInfo

Enchanced CD, то-бишь, кроме сборника на диск впихнули мультимедийную оболочку со списком дискографии, фото и 3 клипа.
__________________
TAIFUN.Wings of Soul

Вверх
Пользователь сказал cпасибо:
swint68 (25.03.2017)
Похожие темы
Тема Автор Раздел Ответов Последнее сообщение
Сборник Queen - Greatest Hits I, II & III. The Platinum Collection sergych Hard Rock 0 19.02.2017 11:22
Сборник Michael Bolton - Greatest Hits. Steel Box Collection sergych Зарубежная Поп-Музыка 0 11.11.2013 16:05
Сборник Boyz II Men – The Christmas Collection sergych R&B 0 10.11.2013 21:26
Сборник Cyndi Lauper - Greatest Hits. Steel Box Collection sergych Soft Rock 0 09.11.2013 18:48
Сборник Rockets - The Definitive Collection (Original Greatest Hits) sergych Electro 0 08.08.2010 16:41


Метки
2001 , boyz ii men , hip hop , legacy: the greatest hits collection , pop , r&b , soul

Опции темы

Ваши права в разделе
Вы не можете создавать новые темы
Вы не можете отвечать в темах
Вы не можете прикреплять вложения
Вы не можете редактировать свои сообщения

Быстрый переход



Текущее время: 22:22. Часовой пояс GMT +3.
Powered by vBulletin® Version 3.8.10
Copyright ©2000 - 2017, vBulletin Solutions, Inc. Перевод: zCarot
© 2008 - 2017 Taifun With Song
Яндекс.Метрика