TAIFUN With Song
Навигация
А знаете ли Вы, что...
Музыка какой рок-группы привлекает акул?
«Австралиец Мэтт Уоллер занимается организацией подводных туров для любителей посмотреть на акул. Традиционно для приманки хищников он использовал рыбу, однако недавно случайно обнаружил, что акул привлекает музыка рок-группы AC/DC. Предположительно, акулы реагируют на вибрацию низких частот, так как у них нет ушей. Сейчас компания Уоллера — единственный туроператор в мире, использующий музыку для приманки, однако он полагает, что конкуренты вскоре последуют его примеру.»
 
Опции темы

  #1
Старый 04.03.2017, 16:27
sergych
Координатор
Досье
 
Аватар для sergych
Релиз Simply Red - A New Flame


1989 - Simply Red - A New Flame




Исполнитель/Artist: Simply Red
Альбом/Album: A New Flame
Год/Year: 1989
Жанр/Genre: Pop, blue-eyed soul
Страна/Country: Германия
Рекорд-лейбл/Record label: WEA Records
Номер в каталоге/Catalogue #: 244689-2
Формат/Format: Free Lossless Audio Codec (*.flac)
Качество/Quality: Lossless
Тип рипа/RIP Type: image+.cue
Продолжительность/Length: 00:40:52
Источник/Source: Собственный рип
Размер/Size: 331.9 MB

Сканы в комплекте

Треклист

01. It's Only Love [0:04:58.32]
02. A New Flame [0:03:57.08]
03. You've Got It [0:03:55.07]
04. To Be With You [0:03:22.73]
05. More [0:04:08.27]
06. Turn It Up [0:04:35.15]
07. Love Lays Its Tune [0:04:05.20]
08. She'll Have To Go [0:03:14.28]
09. If You Don't Know Me By Now [0:03:24.10]
10. Enough [0:05:10.50]
[свернуть]

youtube.com

[свернуть]

Исполнители/Performers

Mick Hucknall – lead vocals (all vocals on 'Enough')
Fritz McIntyre – keyboards & backing vocals
Tim Kellett – trumpet & keyboards, live backing vocals
Chris Joyce – drums
Tony Bowers – bass guitar
Heitor T P – guitars
Ian Kirkham – saxophones

Guest musicians
Erik Hanson & Larry Williams – synthesizer programming
Lenny Castro – percussion
Stephanie Spruell – backing vocals
[свернуть]

EAC лог

Exact Audio Copy V1.2 from 12. August 2016

EAC extraction logfile from 25. February 2017, 20:09

Simply Red / A New Flame

Used drive : ATAPI iHAS124 D Adapter: 1 ID: 0

Read mode : Secure
Utilize accurate stream : Yes
Defeat audio cache : Yes
Make use of C2 pointers : No

Read offset correction : 6
Overread into Lead-In and Lead-Out : No
Fill up missing offset samples with silence : Yes
Delete leading and trailing silent blocks : No
Null samples used in CRC calculations : Yes
Used interface : Native Win32 interface for Win NT & 2000

Used output format : User Defined Encoder
Selected bitrate : 1024 kBit/s
Quality : High
Add ID3 tag : No
Command line compressor : C:\Program Files (x86)\Exact Audio Copy\FLAC\FLAC.EXE
Additional command line options : -6 -V -T "ARTIST=%artist%" -T "TITLE=%title%" -T "ALBUM=%albumtitle%" -T "DATE=%year%" -T "TRACKNUMBER=%tracknr%" -T "GENRE=%genre%" -T "COMMENT=%comment%" -T "BAND=%albuminterpret%" -T "ALBUMARTIST=%albuminterpret%" -T "COMPOSER=%composer%" %haslyrics%--tag-from-file=LYRICS="%lyricsfile%"%haslyrics% -T "DISCNUMBER=%cdnumber%" -T "TOTALDISCS=%totalcds%" -T "TOTALTRACKS=%numtracks%" %hascover%--picture="%coverfile%"%hascover% %source% -o %dest%


TOC of the extracted CD

Track | Start | Length | Start sector | End sector
---------------------------------------------------------
1 | 0:00.00 | 4:58.32 | 0 | 22381
2 | 4:58.32 | 3:57.08 | 22382 | 40164
3 | 8:55.40 | 3:55.07 | 40165 | 57796
4 | 12:50.47 | 3:22.73 | 57797 | 73019
5 | 16:13.45 | 4:08.27 | 73020 | 91646
6 | 20:21.72 | 4:35.15 | 91647 | 112286
7 | 24:57.12 | 4:05.20 | 112287 | 130681
8 | 29:02.32 | 3:14.28 | 130682 | 145259
9 | 32:16.60 | 3:24.10 | 145260 | 160569
10 | 35:40.70 | 5:10.50 | 160570 | 183869


Range status and errors

Selected range

Filename C:\mm\Simply Red\1989 - A New Flame [244689-2]\Simply Red - A New Flame.wav

Peak level 97.7 %
Extraction speed 0.0 X
Range quality 97.0 %
Test CRC 198974D5
Copy CRC 198974D5
Copy OK

No errors occurred


AccurateRip summary

Track 1 accurately ripped (confidence 200) [31C0D6FD] (AR v2)
Track 2 accurately ripped (confidence 200) [9A805432] (AR v2)
Track 3 accurately ripped (confidence 200) [00939B22] (AR v2)
Track 4 accurately ripped (confidence 200) [B92C1A6D] (AR v2)
Track 5 accurately ripped (confidence 200) [A8469247] (AR v2)
Track 6 accurately ripped (confidence 6) [E439A277] (AR v2)
Track 7 accurately ripped (confidence 5) [33C12FE9] (AR v2)
Track 8 accurately ripped (confidence 4) [D453D07B] (AR v2)
Track 9 accurately ripped (confidence 4) [82175B4B] (AR v2)
Track 10 accurately ripped (confidence 3) [8F7CDB5E] (AR v2)

All tracks accurately ripped

End of status report

---- CUETools DB Plugin V2.1.6

[CTDB TOCID: UKXwt9M2VqO2fzt0zNvE3p7plcQ-] found
Submit result: UKXwt9M2VqO2fzt0zNvE3p7plcQ- has been confirmed
Track | CTDB Status
1 | (828/843) Accurately ripped
2 | (835/843) Accurately ripped
3 | (833/843) Accurately ripped
4 | (835/843) Accurately ripped
5 | (338/843) Accurately ripped, or (279/843) differs in 30425 samples @04:07:15-04:07:56
6 | (789/843) Accurately ripped
7 | (834/843) Accurately ripped
8 | (833/843) Accurately ripped
9 | (832/843) Accurately ripped
10 | (830/843) Accurately ripped
If you are sure that your rip contains errors, you can use CUETools to repair it.
[свернуть]

Файл CUE

REM GENRE Pop
REM DATE 1989
REM DISCID 8609930A
REM COMMENT "ExactAudioCopy v1.2"
PERFORMER "Simply Red"
TITLE "A New Flame"
REM COMPOSER ""
FILE "Simply Red - A New Flame.flac" WAVE
TRACK 01 AUDIO
TITLE "It's Only Love"
PERFORMER "Simply Red"
REM COMPOSER ""
INDEX 01 00:00:00
TRACK 02 AUDIO
TITLE "A New Flame"
PERFORMER "Simply Red"
REM COMPOSER ""
INDEX 00 04:57:67
INDEX 01 04:58:32
TRACK 03 AUDIO
TITLE "You've Got It"
PERFORMER "Simply Red"
REM COMPOSER ""
INDEX 00 08:54:15
INDEX 01 08:55:40
TRACK 04 AUDIO
TITLE "To Be With You"
PERFORMER "Simply Red"
REM COMPOSER ""
INDEX 00 12:49:35
INDEX 01 12:50:47
TRACK 05 AUDIO
TITLE "More"
PERFORMER "Simply Red"
REM COMPOSER ""
INDEX 00 16:12:45
INDEX 01 16:13:45
TRACK 06 AUDIO
TITLE "Turn It Up"
PERFORMER "Simply Red"
REM COMPOSER ""
INDEX 00 20:20:22
INDEX 01 20:21:72
TRACK 07 AUDIO
TITLE "Love Lays Its Tune"
PERFORMER "Simply Red"
REM COMPOSER ""
INDEX 00 24:55:62
INDEX 01 24:57:12
TRACK 08 AUDIO
TITLE "She'll Have To Go"
PERFORMER "Simply Red"
REM COMPOSER ""
INDEX 00 29:01:42
INDEX 01 29:02:32
TRACK 09 AUDIO
TITLE "If You Don't Know Me By Now"
PERFORMER "Simply Red"
REM COMPOSER ""
INDEX 00 32:14:72
INDEX 01 32:16:60
TRACK 10 AUDIO
TITLE "Enough"
PERFORMER "Simply Red"
REM COMPOSER ""
INDEX 00 35:39:30
INDEX 01 35:40:70
[свернуть]

Лог проверки качества

AUDIOCHECKER v2.0 beta (build 457) - by Dester -
~~~~~~~~~~~~~~~~~~~~~~~~~~~~~~~~~~
-=== НЕ РЕДАКТИРУЙТЕ ЭТОТ ФАЙЛ! ===-

Путь: ...\1989 - A New Flame [244689-2]

1 -=- Simply Red - A New Flame.flac -=- MPEG (73%)

30896996
[свернуть]

Спектр частот

[свернуть]

Скачать Simply Red - A New Flame



password: sergych
[свернуть]

Контрольная сумма (хеш-сумма) архива

MD5: dd91a412005a11474a50aa3fefce82eb
[свернуть]
My opinion of release: 10/10

Release info RInfo

Третий студийник группы, позволивший стать первыми в Великобритании и 7 раз платиновыми (и это только в той же Англии ).
Вот не скажу, что супер-пупер группа, но есть в их музыке что-то притягивающее, позволяющее с удовольствием вновь возвращаться к прослушиванию.
Нужно будет в планы занести приобретение ремастера 2008 года.
__________________
TAIFUN.Wings of Soul

Вверх
Похожие темы
Тема Автор Раздел Ответов Последнее сообщение
Альбом Simply Red - Men And Women sergych Зарубежная Поп-Музыка 0 26.06.2015 17:54
Альбом Simply Red - Stars sergych Зарубежная Поп-Музыка 0 29.04.2015 17:13
Альбом Simply Red - Simplified sergych Pop Rock 0 14.12.2014 13:12
Сборник Fleetwood Mac - Simply The Best sergych Blues Rock 0 19.06.2013 21:15
Релиз Simply Spa - Meditation PUPOKIN Ambient 0 25.01.2010 09:30


Метки
1989 , a new flame , blue-eyed soul , pop , simply red

Опции темы

Ваши права в разделе
Вы не можете создавать новые темы
Вы не можете отвечать в темах
Вы не можете прикреплять вложения
Вы не можете редактировать свои сообщения

Быстрый переход



Текущее время: 21:23. Часовой пояс GMT +3.
Powered by vBulletin® Version 3.8.10
Copyright ©2000 - 2018, vBulletin Solutions, Inc. Перевод: zCarot
© 2008 - 2018 Taifun With Song
Яндекс.Метрика