TAIFUN With Song
R&B Ссылки на музыку в этом стиле

А знаете ли Вы, что...
Чем прославился Боб Марли до того, как стать музыкантом?
«Знаменитый ямайский регги-музыкант Боб Марли в детстве был известен в своей деревне как талантливый предсказатель по линиям на ладонях.»
 
Опции темы

  #1
Старый 24.02.2017, 08:05
sergych
Координатор
Досье
 
Аватар для sergych
Релиз Seal - Soul


2008 - Seal - Soul




Исполнитель/Artist: Seal
Альбом/Album: Soul
Год/Year: 2008
Жанр/Genre: R'n'B, Soul, Pop
Страна/Country: Европа
Рекорд-лейбл/Record label: WEA International
Номер в каталоге/Catalogue #: 9362-19824-6
Формат/Format: Free Lossless Audio Codec (*.flac)
Качество/Quality: Lossless
Тип рипа/RIP Type: image+.cue
Продолжительность/Length: 00:45:25
Источник/Source: Собственный рип
Размер/Size: 387.3 MB

Сканы в комплекте

Треклист

01. A Change Is Gonna Come [0:03:54.47]
02. I Can't Stand The Rain [0:03:34.48]
03. It's A Man's Man's Man's World [0:03:53.12]
04. Here I Am (Come And Take Me) [0:04:09.68]
05. I've Been Loving You Too Long [0:03:08.09]
06. It's Alright [0:03:46.46]
07. If You Don't Know Me By Now [0:03:50.30]
08. Knock On Wood [0:03:22.12]
09. I'm Still In Love With You [0:04:36.56]
10. Free [0:03:26.57]
11. Stand By Me [0:04:06.19]
12. People Get Ready [0:03:35.19]
[свернуть]

youtube.com

[свернуть]

Исполнители/Performers

Seal - vocals, backing vocals
Dean Parks, Michael Thompson - guitar
Marcus Brown, Nathan East - bass
David Foster - acoustic piano, string and horn arrangements
Jochem Van Der Saag - organ, synthesizer, drum programming
Teddy Campbell - drums on "Knock on Wood"
John Robinson - drums on "Stand by Me"
Jerry Hey - string and horn arrangements
Don Sebesky - string and horn arrangement on "It's a Man's Man's Man's World" and "Knock on Wood"
Brad Dechter - string and horn arrangement on "I'm Still in Love with You"
[свернуть]

EAC лог

Exact Audio Copy V1.2 from 12. August 2016

EAC extraction logfile from 23. February 2017, 9:04

Seal / Soul

Used drive : PLEXTOR DVDR PX-716A Adapter: 1 ID: 0

Read mode : Secure
Utilize accurate stream : Yes
Defeat audio cache : Yes
Make use of C2 pointers : No

Read offset correction : 30
Overread into Lead-In and Lead-Out : No
Fill up missing offset samples with silence : Yes
Delete leading and trailing silent blocks : No
Null samples used in CRC calculations : Yes
Used interface : Native Win32 interface for Win NT & 2000

Used output format : User Defined Encoder
Selected bitrate : 1024 kBit/s
Quality : High
Add ID3 tag : No
Command line compressor : C:\Program Files (x86)\Exact Audio Copy\FLAC\FLAC.EXE
Additional command line options : -6 -V -T "ARTIST=%artist%" -T "TITLE=%title%" -T "ALBUM=%albumtitle%" -T "DATE=%year%" -T "TRACKNUMBER=%tracknr%" -T "GENRE=%genre%" -T "COMMENT=%comment%" -T "BAND=%albuminterpret%" -T "ALBUMARTIST=%albuminterpret%" -T "COMPOSER=%composer%" %haslyrics%--tag-from-file=LYRICS="%lyricsfile%"%haslyrics% -T "DISCNUMBER=%cdnumber%" -T "TOTALDISCS=%totalcds%" -T "TOTALTRACKS=%numtracks%" %hascover%--picture="%coverfile%"%hascover% %source% -o %dest%


TOC of the extracted CD

Track | Start | Length | Start sector | End sector
---------------------------------------------------------
1 | 0:00.00 | 3:54.47 | 0 | 17596
2 | 3:54.47 | 3:34.48 | 17597 | 33694
3 | 7:29.20 | 3:53.12 | 33695 | 51181
4 | 11:22.32 | 4:09.68 | 51182 | 69924
5 | 15:32.25 | 3:08.09 | 69925 | 84033
6 | 18:40.34 | 3:46.46 | 84034 | 101029
7 | 22:27.05 | 3:50.30 | 101030 | 118309
8 | 26:17.35 | 3:22.12 | 118310 | 133471
9 | 29:39.47 | 4:36.56 | 133472 | 154227
10 | 34:16.28 | 3:26.57 | 154228 | 169734
11 | 37:43.10 | 4:06.19 | 169735 | 188203
12 | 41:49.29 | 3:35.19 | 188204 | 204347


Range status and errors

Selected range

Filename C:\mm\Seal\2008 - Soul [9362-19824-6]\Seal - Soul.wav

Peak level 100.0 %
Extraction speed 3.8 X
Range quality 100.0 %
Test CRC E6E0F457
Copy CRC E6E0F457
Copy OK

No errors occurred


AccurateRip summary

Track 1 accurately ripped (confidence 200) [850AA309] (AR v2)
Track 2 accurately ripped (confidence 200) [9A441DD1] (AR v2)
Track 3 accurately ripped (confidence 200) [B24A974C] (AR v2)
Track 4 accurately ripped (confidence 200) [BF09BD9F] (AR v2)
Track 5 accurately ripped (confidence 200) [6E571C11] (AR v2)
Track 6 accurately ripped (confidence 200) [5A6596CF] (AR v2)
Track 7 accurately ripped (confidence 200) [80728702] (AR v2)
Track 8 accurately ripped (confidence 200) [68D0C052] (AR v2)
Track 9 accurately ripped (confidence 200) [0D5365CF] (AR v2)
Track 10 accurately ripped (confidence 200) [1DD1688D] (AR v2)
Track 11 accurately ripped (confidence 200) [ED09CC49] (AR v2)
Track 12 accurately ripped (confidence 200) [E6BB35BF] (AR v2)

All tracks accurately ripped

End of status report

---- CUETools DB Plugin V2.1.6

[CTDB TOCID: 76WcVXhMHoGnxJ8PtESgE8m2A70-] found
Submit result: 76WcVXhMHoGnxJ8PtESgE8m2A70- has been confirmed
Track | CTDB Status
1 | (636/638) Accurately ripped
2 | (637/638) Accurately ripped
3 | (636/638) Accurately ripped
4 | (636/638) Accurately ripped
5 | (636/638) Accurately ripped
6 | (636/638) Accurately ripped
7 | (636/638) Accurately ripped
8 | (637/638) Accurately ripped
9 | (636/638) Accurately ripped
10 | (637/638) Accurately ripped
11 | (637/638) Accurately ripped
12 | (637/638) Accurately ripped
[свернуть]

Файл CUE

REM GENRE Soul
REM DATE 2008
REM DISCID 9E0AA40C
REM COMMENT "ExactAudioCopy v1.2"
PERFORMER "Seal"
TITLE "Soul"
REM COMPOSER ""
FILE "Seal - Soul.flac" WAVE
TRACK 01 AUDIO
TITLE "A Change Is Gonna Come"
PERFORMER "Seal"
REM COMPOSER ""
INDEX 01 00:00:00
TRACK 02 AUDIO
TITLE "I Can't Stand The Rain"
PERFORMER "Seal"
REM COMPOSER ""
INDEX 00 03:53:66
INDEX 01 03:54:47
TRACK 03 AUDIO
TITLE "It's A Man's Man's Man's World"
PERFORMER "Seal"
REM COMPOSER ""
INDEX 00 07:27:67
INDEX 01 07:29:20
TRACK 04 AUDIO
TITLE "Here I Am (Come And Take Me)"
PERFORMER "Seal"
REM COMPOSER ""
INDEX 00 11:20:29
INDEX 01 11:22:32
TRACK 05 AUDIO
TITLE "I've Been Loving You Too Long"
PERFORMER "Seal"
REM COMPOSER ""
INDEX 00 15:30:44
INDEX 01 15:32:25
TRACK 06 AUDIO
TITLE "It's Alright"
PERFORMER "Seal"
REM COMPOSER ""
INDEX 00 18:39:13
INDEX 01 18:40:34
TRACK 07 AUDIO
TITLE "If You Don't Know Me By Now"
PERFORMER "Seal"
REM COMPOSER ""
INDEX 00 22:24:28
INDEX 01 22:27:05
TRACK 08 AUDIO
TITLE "Knock On Wood"
PERFORMER "Seal"
REM COMPOSER ""
INDEX 00 26:13:73
INDEX 01 26:17:35
TRACK 09 AUDIO
TITLE "I'm Still In Love With You"
PERFORMER "Seal"
REM COMPOSER ""
INDEX 00 29:38:10
INDEX 01 29:39:47
TRACK 10 AUDIO
TITLE "Free"
PERFORMER "Seal"
REM COMPOSER ""
INDEX 00 34:13:29
INDEX 01 34:16:28
TRACK 11 AUDIO
TITLE "Stand By Me"
PERFORMER "Seal"
REM COMPOSER ""
INDEX 00 37:39:26
INDEX 01 37:43:10
TRACK 12 AUDIO
TITLE "People Get Ready"
PERFORMER "Seal"
REM COMPOSER ""
INDEX 00 41:45:71
INDEX 01 41:49:29
[свернуть]

Лог проверки качества

AUDIOCHECKER v2.0 beta (build 457) - by Dester - [Ссылки могут видеть только зарегистрированные пользователи. ]
~~~~~~~~~~~~~~~~~~~~~~~~~~~~~~~~~~
-=== НЕ РЕДАКТИРУЙТЕ ЭТОТ ФАЙЛ! ===-

Путь: ...\2008 - Soul [9362-19824-6]

1 -=- Seal - Soul.flac -=- CDDA (100%)

45838228
[свернуть]

Спектр частот

[свернуть]

Скачать Seal - Soul

[Ссылки могут видеть только зарегистрированные пользователи. ]

password: sergych
[свернуть]

Контрольная сумма (хеш-сумма) архива

MD5: 8d879628b2a5362df13561c740c25861
[свернуть]
My opinion of release: 10/10

Release info RInfo

"..я не красавец, может быть, снаружи, зато душой красив наверняка.." (с)
Шикарный, без преувеличения, альбом каверов.
__________________
TAIFUN.Wings of Soul

Вверх
3 пользователя(ей) сказали cпасибо:
Показать список поблагодаривших
Похожие темы
Тема Автор Раздел Ответов Последнее сообщение
Альбом Seal - Soul 2 sergych R&B 0 04.05.2016 23:32
Сборник Seal - Hits PUPOKIN R&B 0 26.11.2009 10:31
Релиз Lil Kong & Kathy Soul - Baby Lone Soul PUPOKIN Русский, украинский 0 09.10.2009 11:00
Live Seal - At The Point sergych R&B 0 24.10.2008 03:29
Seal sergych R&B [FAQ] 0 13.06.2008 19:12


Метки
2008 , pop , r'n'b , seal , soul

Опции темы

Ваши права в разделе
Вы не можете создавать новые темы
Вы не можете отвечать в темах
Вы не можете прикреплять вложения
Вы не можете редактировать свои сообщения

Быстрый переход



Текущее время: 01:50. Часовой пояс GMT +3.
Powered by vBulletin® Version 3.8.7
Copyright ©2000 - 2017, vBulletin Solutions, Inc. Перевод: zCarot
© 2008 - 2017 Taifun With Song
Яндекс.Метрика