TAIFUN With Song
Jazz и Blues Гибкая ритмика, импровизационное начало, гармонии и мелодии - все это Jazz. Blues - жизнеутверждающая музыка, рожденная из душевной боли

А знаете ли Вы, что...
Какой музыкант однажды спел о том, что забыл слова этой песни?
«Однажды на концерте во Франции солист исландской группы Sigur Rós Йонси забыл текст песни. Не остановившись, он сымпровизировал под ту же музыку: «Чёрт, я забыл слова. Но это ничего. Потому что я во Франции, где никто не поймёт».»
 
Опции темы

  #1
Старый 14.01.2017, 22:26
sergych
Координатор
Досье
 
Аватар для sergych
Релиз Oleta Adams - Moving On


1995 - Oleta Adams - Moving On




Исполнитель/Artist: Oleta Adams
Альбом/Album: Moving On
Год/Year: 1995
Жанр/Genre: Jazz, Soul, Smooth Jazz, Neo Soul
Страна/Country: Германия
Рекорд-лейбл/Record label: Fontana
Номер в каталоге/Catalogue #: 528 530-2
Формат/Format: Free Lossless Audio Codec (*.flac)
Качество/Quality: Lossless
Тип рипа/RIP Type: image+.cue
Продолжительность/Length: 01:08:38
Источник/Source: Собственный рип
Размер/Size: 526.2 MB

Сканы в комплекте

Треклист

01. Never Knew Love [0:03:23.40]
02. Once In A Lifetime [0:05:23.42]
03. I Knew You When [0:04:19.65]
04. You Need To Be Loved [0:04:40.50]
05. Slow Motion [0:05:13.28]
06. We Will Meet Again [0:04:47.02]
07. This Is Real [0:05:02.03]
08. Life Keeps Moving On [0:05:32.00]
09. Long Distance Love [0:04:15.55]
10. Love Begins At Home [0:04:51.37]
11. If This Love Should Ever End [0:04:44.73]
12. New Star [0:04:17.50]
13. Between Hello & Goodbye [0:06:12.20]
14. Don't Let The Sun Go Down On Me [0:05:53.65]
[свернуть]

youtube.com

[свернуть]

EAC лог

Exact Audio Copy V1.2 from 12. August 2016

EAC extraction logfile from 14. January 2017, 19:19

Oleta Adams / Moving On

Used drive : PLEXTOR DVDR PX-716A Adapter: 1 ID: 0

Read mode : Secure
Utilize accurate stream : Yes
Defeat audio cache : Yes
Make use of C2 pointers : No

Read offset correction : 30
Overread into Lead-In and Lead-Out : No
Fill up missing offset samples with silence : Yes
Delete leading and trailing silent blocks : No
Null samples used in CRC calculations : Yes
Used interface : Native Win32 interface for Win NT & 2000

Used output format : User Defined Encoder
Selected bitrate : 1024 kBit/s
Quality : High
Add ID3 tag : No
Command line compressor : C:\Program Files (x86)\Exact Audio Copy\FLAC\FLAC.EXE
Additional command line options : -6 -V -T "ARTIST=%artist%" -T "TITLE=%title%" -T "ALBUM=%albumtitle%" -T "DATE=%year%" -T "TRACKNUMBER=%tracknr%" -T "GENRE=%genre%" -T "COMMENT=%comment%" -T "BAND=%albuminterpret%" -T "ALBUMARTIST=%albuminterpret%" -T "COMPOSER=%composer%" %haslyrics%--tag-from-file=LYRICS="%lyricsfile%"%haslyrics% -T "DISCNUMBER=%cdnumber%" -T "TOTALDISCS=%totalcds%" -T "TOTALTRACKS=%numtracks%" %hascover%--picture="%coverfile%"%hascover% %source% -o %dest%


TOC of the extracted CD

Track | Start | Length | Start sector | End sector
---------------------------------------------------------
1 | 0:00.00 | 3:23.40 | 0 | 15264
2 | 3:23.40 | 5:23.42 | 15265 | 39531
3 | 8:47.07 | 4:19.65 | 39532 | 59021
4 | 13:06.72 | 4:40.50 | 59022 | 80071
5 | 17:47.47 | 5:13.28 | 80072 | 103574
6 | 23:01.00 | 4:47.02 | 103575 | 125101
7 | 27:48.02 | 5:02.03 | 125102 | 147754
8 | 32:50.05 | 5:32.00 | 147755 | 172654
9 | 38:22.05 | 4:15.55 | 172655 | 191834
10 | 42:37.60 | 4:51.37 | 191835 | 213696
11 | 47:29.22 | 4:44.73 | 213697 | 235069
12 | 52:14.20 | 4:17.50 | 235070 | 254394
13 | 56:31.70 | 6:12.20 | 254395 | 282314
14 | 62:44.15 | 5:53.65 | 282315 | 308854


Range status and errors

Selected range

Filename C:\mm\Oleta Adams\1995 - Moving On [528 530-2]\Oleta Adams - Moving On.wav

Peak level 100.0 %
Extraction speed 13.8 X
Range quality 100.0 %
Test CRC 4A758E73
Copy CRC 4A758E73
Copy OK

No errors occurred


AccurateRip summary

Track 1 accurately ripped (confidence 52) [3A284AC0] (AR v2)
Track 2 accurately ripped (confidence 52) [4B42AC4B] (AR v2)
Track 3 accurately ripped (confidence 52) [26A0DB64] (AR v2)
Track 4 accurately ripped (confidence 53) [13078402] (AR v2)
Track 5 accurately ripped (confidence 53) [E7EAD8B4] (AR v2)
Track 6 accurately ripped (confidence 51) [F553CD08] (AR v2)
Track 7 accurately ripped (confidence 53) [DD5AB577] (AR v2)
Track 8 accurately ripped (confidence 52) [0389DEEA] (AR v2)
Track 9 accurately ripped (confidence 51) [6EBC4FD2] (AR v2)
Track 10 accurately ripped (confidence 52) [CBEF7085] (AR v2)
Track 11 accurately ripped (confidence 52) [D867ADFA] (AR v2)
Track 12 accurately ripped (confidence 52) [29F331A9] (AR v2)
Track 13 accurately ripped (confidence 51) [7349CC24] (AR v2)
Track 14 accurately ripped (confidence 52) [30A9D9FF] (AR v2)

All tracks accurately ripped

End of status report

---- CUETools DB Plugin V2.1.6

[CTDB TOCID: m3XMzFEhq80FCxyJrMTpc17nEOs-] found
Submit result: m3XMzFEhq80FCxyJrMTpc17nEOs- has been confirmed
Track | CTDB Status
1 | (68/71) Accurately ripped
2 | (68/71) Accurately ripped
3 | (68/71) Accurately ripped
4 | (69/71) Accurately ripped
5 | (69/71) Accurately ripped
6 | (69/71) Accurately ripped
7 | (69/71) Accurately ripped
8 | (68/71) Accurately ripped
9 | (68/71) Accurately ripped
10 | (68/71) Accurately ripped
11 | (68/71) Accurately ripped
12 | (68/71) Accurately ripped
13 | (65/71) Accurately ripped
14 | (68/71) Accurately ripped
[свернуть]

Файл CUE

REM GENRE Jazz
REM DATE 1995
REM DISCID D310160E
REM COMMENT "ExactAudioCopy v1.2"
PERFORMER "Oleta Adams"
TITLE "Moving On"
REM COMPOSER ""
FILE "Oleta Adams - Moving On.flac" WAVE
TRACK 01 AUDIO
TITLE "Never Knew Love"
PERFORMER "Oleta Adams"
REM COMPOSER ""
INDEX 01 00:00:00
TRACK 02 AUDIO
TITLE "Once In A Lifetime"
PERFORMER "Oleta Adams"
REM COMPOSER ""
INDEX 00 03:21:20
INDEX 01 03:23:40
TRACK 03 AUDIO
TITLE "I Knew You When"
PERFORMER "Oleta Adams"
REM COMPOSER ""
INDEX 00 08:45:70
INDEX 01 08:47:07
TRACK 04 AUDIO
TITLE "You Need To Be Loved"
PERFORMER "Oleta Adams"
REM COMPOSER ""
INDEX 00 13:05:67
INDEX 01 13:06:72
TRACK 05 AUDIO
TITLE "Slow Motion"
PERFORMER "Oleta Adams"
REM COMPOSER ""
INDEX 01 17:47:47
TRACK 06 AUDIO
TITLE "We Will Meet Again"
PERFORMER "Oleta Adams"
REM COMPOSER ""
INDEX 01 23:01:00
TRACK 07 AUDIO
TITLE "This Is Real"
PERFORMER "Oleta Adams"
REM COMPOSER ""
INDEX 01 27:48:02
TRACK 08 AUDIO
TITLE "Life Keeps Moving On"
PERFORMER "Oleta Adams"
REM COMPOSER ""
INDEX 00 32:49:67
INDEX 01 32:50:05
TRACK 09 AUDIO
TITLE "Long Distance Love"
PERFORMER "Oleta Adams"
REM COMPOSER ""
INDEX 00 38:20:55
INDEX 01 38:22:05
TRACK 10 AUDIO
TITLE "Love Begins At Home"
PERFORMER "Oleta Adams"
REM COMPOSER ""
INDEX 00 42:37:07
INDEX 01 42:37:60
TRACK 11 AUDIO
TITLE "If This Love Should Ever End"
PERFORMER "Oleta Adams"
REM COMPOSER ""
INDEX 00 47:28:40
INDEX 01 47:29:22
TRACK 12 AUDIO
TITLE "New Star"
PERFORMER "Oleta Adams"
REM COMPOSER ""
INDEX 00 52:13:15
INDEX 01 52:14:20
TRACK 13 AUDIO
TITLE "Between Hello & Goodbye"
PERFORMER "Oleta Adams"
REM COMPOSER ""
INDEX 00 56:31:32
INDEX 01 56:31:70
TRACK 14 AUDIO
TITLE "Don't Let The Sun Go Down On Me"
PERFORMER "Oleta Adams"
REM COMPOSER ""
INDEX 00 62:42:52
INDEX 01 62:44:15
[свернуть]

Лог проверки качества

AUDIOCHECKER v2.0 beta (build 457) - by Dester - [Ссылки могут видеть только зарегистрированные пользователи. ]
~~~~~~~~~~~~~~~~~~~~~~~~~~~~~~~~~~
-=== НЕ РЕДАКТИРУЙТЕ ЭТОТ ФАЙЛ! ===-

Путь: ...\1995 - Moving On [528 530-2]

1 -=- Oleta Adams - Moving On.flac -=- CDDA (100%)

16555924
[свернуть]

Спектр частот

[свернуть]

Скачать Oleta Adams - Moving On

[Ссылки могут видеть только зарегистрированные пользователи. ]

password: sergych
[свернуть]

Контрольная сумма (хеш-сумма) архива

MD5: d27a1c83fd9fe54ef94bbdad66e6813c
[свернуть]
My opinion of release: 10/10
__________________
TAIFUN.Wings of Soul

Вверх
Пользователь сказал cпасибо:
swint68 (15.01.2017)
Похожие темы
Тема Автор Раздел Ответов Последнее сообщение
Сборник Oleta Adams - The Very Best Of Oleta Adams sergych Jazz и Blues 0 04.11.2016 12:42
Альбом Oleta Adams - Circle Of One sergych Jazz и Blues 0 03.09.2016 09:13
Альбом Oleta Adams - Evolution sergych Jazz и Blues 0 12.08.2016 08:42
Moving Forward DarkDan Psychedelic 0 27.05.2008 21:05
Parade The Day - To Keep Us Moving ReAl Punk Rock 0 14.05.2008 21:09


Метки
1995 , jazz , moving on , neo soul , oleta adams , smooth jazz , soul

Опции темы

Ваши права в разделе
Вы не можете создавать новые темы
Вы не можете отвечать в темах
Вы не можете прикреплять вложения
Вы не можете редактировать свои сообщения

Быстрый переход



Текущее время: 22:13. Часовой пояс GMT +3.
Powered by vBulletin® Version 3.8.7
Copyright ©2000 - 2017, vBulletin Solutions, Inc. Перевод: zCarot
© 2008 - 2017 Taifun With Song
Яндекс.Метрика