TAIFUN With Song
Jazz и Blues Гибкая ритмика, импровизационное начало, гармонии и мелодии - все это Jazz. Blues - жизнеутверждающая музыка, рожденная из душевной боли

А знаете ли Вы, что...
Какой русский музыкальный инструмент мы называем цыганским?
«Семиструнную гитару во всём мире называют русской гитарой, а у нас также распространено название цыганская гитара.»
 
Опции темы

  #1
Старый 19.12.2016, 19:31
sergych
Координатор
Досье
 
Аватар для sergych
Релиз Kim Waters - It's Time For Love


1994 - Kim Waters - It's Time For Love




Исполнитель/Artist: Kim Waters
Альбом/Album: It's Time For Love
Год/Year: 1994
Жанр/Genre: Smooth jazz
Страна/Country: Соединённые Штаты
Рекорд-лейбл/Record label: Warlock Records
Номер в каталоге/Catalogue #: WARCD-2745
Формат/Format: Free Lossless Audio Codec (*.flac)
Качество/Quality: Lossless
Тип рипа/RIP Type: image+.cue
Продолжительность/Length: 00:57:11
Источник/Source: Собственный рип
Размер/Size: 395.7 MB

Сканы в комплекте

Треклист

01. Love Introduction [0:02:33.35]
02. It's Time For Love [0:04:29.02]
03. Come Into My World [0:05:01.00]
04. Lost In The Storm [0:04:49.03]
05. Heartbreaker [0:04:38.47]
06. One Last Cry [0:05:25.13]
07. About Face [0:04:41.50]
08. The Loving Feeling [0:06:07.20]
09. Share My Love [0:04:56.35]
10. Take It Easy [0:05:59.45]
11. Circle Of Wisdom [0:05:58.47]
12. Love Introduction (Instrumental) [0:02:31.23]
[свернуть]

youtube.com

[свернуть]

Исполнители/Performers

Kim Waters - soprano saxophone, alto saxophone, piano, keyboards, drum programming
Alex Simms - vocals, background vocals
Allen Thomas - guitar
Moe Daniels - keyboards
James Waters, Jr. - bass guitar
[свернуть]

EAC лог

Exact Audio Copy V1.2 from 12. August 2016

EAC extraction logfile from 14. October 2016, 2:13

Kim Waters / It's Time For Love

Used drive : ATAPI iHAS124 D Adapter: 1 ID: 1

Read mode : Secure
Utilize accurate stream : Yes
Defeat audio cache : Yes
Make use of C2 pointers : No

Read offset correction : 6
Overread into Lead-In and Lead-Out : No
Fill up missing offset samples with silence : Yes
Delete leading and trailing silent blocks : No
Null samples used in CRC calculations : Yes
Used interface : Native Win32 interface for Win NT & 2000

Used output format : User Defined Encoder
Selected bitrate : 1024 kBit/s
Quality : High
Add ID3 tag : No
Command line compressor : C:\Program Files (x86)\Exact Audio Copy\FLAC\FLAC.EXE
Additional command line options : -6 -V -T "ARTIST=%artist%" -T "TITLE=%title%" -T "ALBUM=%albumtitle%" -T "DATE=%year%" -T "TRACKNUMBER=%tracknr%" -T "GENRE=%genre%" -T "COMMENT=%comment%" -T "BAND=%albuminterpret%" -T "ALBUMARTIST=%albuminterpret%" -T "COMPOSER=%composer%" %haslyrics%--tag-from-file=LYRICS="%lyricsfile%"%haslyrics% -T "DISCNUMBER=%cdnumber%" -T "TOTALDISCS=%totalcds%" -T "TOTALTRACKS=%numtracks%" %hascover%--picture="%coverfile%"%hascover% %source% -o %dest%


TOC of the extracted CD

Track | Start | Length | Start sector | End sector
---------------------------------------------------------
1 | 0:00.00 | 2:33.35 | 0 | 11509
2 | 2:33.35 | 4:29.02 | 11510 | 31686
3 | 7:02.37 | 5:01.00 | 31687 | 54261
4 | 12:03.37 | 4:49.03 | 54262 | 75939
5 | 16:52.40 | 4:38.47 | 75940 | 96836
6 | 21:31.12 | 5:25.13 | 96837 | 121224
7 | 26:56.25 | 4:41.50 | 121225 | 142349
8 | 31:38.00 | 6:07.20 | 142350 | 169894
9 | 37:45.20 | 4:56.35 | 169895 | 192129
10 | 42:41.55 | 5:59.45 | 192130 | 219099
11 | 48:41.25 | 5:58.47 | 219100 | 245996
12 | 54:39.72 | 2:31.23 | 245997 | 257344


Range status and errors

Selected range

Filename C:\mm\Kim Waters\1994 - It's Time For Love [WARCD-2745]\Kim Waters - It's Time For Love.wav

Peak level 97.7 %
Extraction speed 3.3 X
Range quality 100.0 %
Test CRC 652DF6A0
Copy CRC 652DF6A0
Copy OK

No errors occurred


AccurateRip summary

Track 1 accurately ripped (confidence 4) [68099501] (AR v2)
Track 2 accurately ripped (confidence 4) [B90C9293] (AR v2)
Track 3 accurately ripped (confidence 4) [17649A5E] (AR v2)
Track 4 accurately ripped (confidence 4) [DD7F52C1] (AR v2)
Track 5 accurately ripped (confidence 5) [A7D51FC1] (AR v2)
Track 6 accurately ripped (confidence 4) [2015BD7F] (AR v2)
Track 7 accurately ripped (confidence 4) [A380E91B] (AR v2)
Track 8 accurately ripped (confidence 4) [4FF6FC31] (AR v2)
Track 9 accurately ripped (confidence 4) [9BA315E6] (AR v2)
Track 10 accurately ripped (confidence 4) [9BA159F3] (AR v2)
Track 11 accurately ripped (confidence 4) [F298DEA3] (AR v2)
Track 12 accurately ripped (confidence 4) [9E3D8924] (AR v2)

All tracks accurately ripped

End of status report

---- CUETools DB Plugin V2.1.6

[CTDB TOCID: a4YMBtpYtDEHC2DJYUUaaCPTmRU-] found
Submit result: a4YMBtpYtDEHC2DJYUUaaCPTmRU- has been confirmed
Track | CTDB Status
1 | (1/1) Accurately ripped
2 | (1/1) Accurately ripped
3 | (1/1) Accurately ripped
4 | (1/1) Accurately ripped
5 | (1/1) Accurately ripped
6 | (1/1) Accurately ripped
7 | (1/1) Accurately ripped
8 | (1/1) Accurately ripped
9 | (1/1) Accurately ripped
10 | (1/1) Accurately ripped
11 | (1/1) Accurately ripped
12 | (1/1) Accurately ripped
[свернуть]

Файл CUE

REM GENRE Jazz
REM DATE 1994
REM DISCID 930D670C
REM COMMENT "ExactAudioCopy v1.2"
PERFORMER "Kim Waters"
TITLE "It's Time For Love"
REM COMPOSER ""
FILE "Kim Waters - It's Time For Love.flac" WAVE
TRACK 01 AUDIO
TITLE "Love Introduction"
PERFORMER "Kim Waters"
REM COMPOSER ""
INDEX 01 00:00:00
TRACK 02 AUDIO
TITLE "It's Time For Love"
PERFORMER "Kim Waters"
REM COMPOSER ""
INDEX 00 02:30:65
INDEX 01 02:33:35
TRACK 03 AUDIO
TITLE "Come Into My World"
PERFORMER "Kim Waters"
REM COMPOSER ""
INDEX 00 06:58:62
INDEX 01 07:02:37
TRACK 04 AUDIO
TITLE "Lost In The Storm"
PERFORMER "Kim Waters"
REM COMPOSER ""
INDEX 00 12:00:72
INDEX 01 12:03:37
TRACK 05 AUDIO
TITLE "Heartbreaker"
PERFORMER "Kim Waters"
REM COMPOSER ""
INDEX 00 16:49:22
INDEX 01 16:52:40
TRACK 06 AUDIO
TITLE "One Last Cry"
PERFORMER "Kim Waters"
REM COMPOSER ""
INDEX 00 21:28:40
INDEX 01 21:31:12
TRACK 07 AUDIO
TITLE "About Face"
PERFORMER "Kim Waters"
REM COMPOSER ""
INDEX 00 26:53:52
INDEX 01 26:56:25
TRACK 08 AUDIO
TITLE "The Loving Feeling"
PERFORMER "Kim Waters"
REM COMPOSER ""
INDEX 00 31:34:42
INDEX 01 31:38:00
TRACK 09 AUDIO
TITLE "Share My Love"
PERFORMER "Kim Waters"
REM COMPOSER ""
INDEX 00 37:41:37
INDEX 01 37:45:20
TRACK 10 AUDIO
TITLE "Take It Easy"
PERFORMER "Kim Waters"
REM COMPOSER ""
INDEX 00 42:38:22
INDEX 01 42:41:55
TRACK 11 AUDIO
TITLE "Circle Of Wisdom"
PERFORMER "Kim Waters"
REM COMPOSER ""
INDEX 00 48:38:52
INDEX 01 48:41:25
TRACK 12 AUDIO
TITLE "Love Introduction (Instrumental)"
PERFORMER "Kim Waters"
REM COMPOSER ""
INDEX 00 54:37:47
INDEX 01 54:39:72
[свернуть]

Лог проверки качества

AUDIOCHECKER v2.0 beta (build 457) - by Dester -
~~~~~~~~~~~~~~~~~~~~~~~~~~~~~~~~~~
-=== НЕ РЕДАКТИРУЙТЕ ЭТОТ ФАЙЛ! ===-

Путь: ...\1994 - It's Time For Love [WARCD-2745]

1 -=- Kim Waters - It's Time For Love.flac -=- MPEG (95%)

70849332
[свернуть]

Спектр частот

[свернуть]

Скачать Kim Waters - It's Time For Love



password: sergych
[свернуть]

Контрольная сумма (хеш-сумма) архива

MD5: fefc3a77cc8f26861ab41ce7a65c59d8
[свернуть]
My opinion of release: 10/10
__________________
TAIFUN.Wings of Soul

Вверх
2 пользователя(ей) сказали cпасибо:
johnsilver (27.08.2017), swint68 (19.12.2016)
Похожие темы
Тема Автор Раздел Ответов Последнее сообщение
Альбом Stevie Wonder - A Time To Love sergych R&B 0 09.12.2014 18:18
Релиз The Beegie Adair Trio - A Time for Love PUPOKIN Jazz и Blues 0 18.12.2013 09:52
Релиз Dan Fogelberg - Love In Time PUPOKIN Soft Rock 0 24.09.2009 18:02
Альбом Emiliana Torrini - Love In The Time Of Science sergych Jazz и Blues 0 20.06.2009 21:56
Релиз Lenny Kravitz - It Is Time For A Love Revolution LUСIAN Pop Rock 0 21.04.2008 22:52


Метки
1994 , it's time for love , kim waters , smooth jazz

Опции темы

Ваши права в разделе
Вы не можете создавать новые темы
Вы не можете отвечать в темах
Вы не можете прикреплять вложения
Вы не можете редактировать свои сообщения

Быстрый переход



Текущее время: 04:47. Часовой пояс GMT +3.
Powered by vBulletin® Version 3.8.7
Copyright ©2000 - 2017, vBulletin Solutions, Inc. Перевод: zCarot
© 2008 - 2017 Taifun With Song
Яндекс.Метрика