TAIFUN With Song
Jazz и Blues Гибкая ритмика, импровизационное начало, гармонии и мелодии - все это Jazz. Blues - жизнеутверждающая музыка, рожденная из душевной боли

А знаете ли Вы, что...
Какой русский музыкальный инструмент мы называем цыганским?
«Семиструнную гитару во всём мире называют русской гитарой, а у нас также распространено название цыганская гитара.»
 
Опции темы

  #1
Старый 30.11.2016, 18:05
sergych
Координатор
Досье
 
Аватар для sergych
Релиз Nat King Cole - Platinum


2007 - Nat King Cole - Platinum




Исполнитель/Artist: Nat King Cole
Альбом/Album: Platinum
Год/Year: 2007
Жанр/Genre: Jazz, Easy listening
Страна/Country: Канада
Рекорд-лейбл/Record label: EMI Music
Номер в каталоге/Catalogue #: 09463-87997-2-6
Формат/Format: Free Lossless Audio Codec (*.flac)
Качество/Quality: Lossless
Тип рипа/RIP Type: image+.cue
Продолжительность/Length: 00:35:10
Источник/Source: Собственный рип
Размер/Size: 164.5 MB

Сканы в комплекте

Треклист

01. Lush Life [0:03:18.10]
02. Because You're Mine [0:03:13.16]
03. Too Young to Go Steady [0:02:53.50]
04. People [0:02:42.09]
05. Somewhere Along the Way [0:02:53.50]
06. Tenderly [0:02:57.07]
07. Smile [0:02:54.57]
08. A Blossom Fell [0:02:33.12]
09. That's You [0:02:37.00]
10. Faith Can Move Mountaines [0:03:12.72]
11. Pretend [0:02:44.57]
12. Mother Nature and Father Time [0:03:09.69]
[свернуть]

youtube.com

[свернуть]

EAC лог

Exact Audio Copy V1.2 from 12. August 2016

EAC extraction logfile from 20. November 2016, 21:31

Nat King Cole / Platinum

Used drive : ATAPI iHAS124 D Adapter: 1 ID: 0

Read mode : Secure
Utilize accurate stream : Yes
Defeat audio cache : Yes
Make use of C2 pointers : No

Read offset correction : 6
Overread into Lead-In and Lead-Out : No
Fill up missing offset samples with silence : Yes
Delete leading and trailing silent blocks : No
Null samples used in CRC calculations : Yes
Used interface : Native Win32 interface for Win NT & 2000

Used output format : User Defined Encoder
Selected bitrate : 1024 kBit/s
Quality : High
Add ID3 tag : No
Command line compressor : C:\Program Files (x86)\Exact Audio Copy\FLAC\FLAC.EXE
Additional command line options : -6 -V -T "ARTIST=%artist%" -T "TITLE=%title%" -T "ALBUM=%albumtitle%" -T "DATE=%year%" -T "TRACKNUMBER=%tracknr%" -T "GENRE=%genre%" -T "COMMENT=%comment%" -T "BAND=%albuminterpret%" -T "ALBUMARTIST=%albuminterpret%" -T "COMPOSER=%composer%" %haslyrics%--tag-from-file=LYRICS="%lyricsfile%"%haslyrics% -T "DISCNUMBER=%cdnumber%" -T "TOTALDISCS=%totalcds%" -T "TOTALTRACKS=%numtracks%" %hascover%--picture="%coverfile%"%hascover% %source% -o %dest%


TOC of the extracted CD

Track | Start | Length | Start sector | End sector
---------------------------------------------------------
1 | 0:00.00 | 3:18.10 | 0 | 14859
2 | 3:18.10 | 3:13.16 | 14860 | 29350
3 | 6:31.26 | 2:53.50 | 29351 | 42375
4 | 9:25.01 | 2:42.09 | 42376 | 54534
5 | 12:07.10 | 2:53.50 | 54535 | 67559
6 | 15:00.60 | 2:57.07 | 67560 | 80841
7 | 17:57.67 | 2:54.57 | 80842 | 93948
8 | 20:52.49 | 2:33.12 | 93949 | 105435
9 | 23:25.61 | 2:37.00 | 105436 | 117210
10 | 26:02.61 | 3:12.72 | 117211 | 131682
11 | 29:15.58 | 2:44.57 | 131683 | 144039
12 | 32:00.40 | 3:09.69 | 144040 | 158283


Range status and errors

Selected range

Filename C:\mm\Nat King Cole\2007 - Platinum [09463-87997-2-6]\Nat King Cole - Platinum.wav

Peak level 100.0 %
Extraction speed 2.8 X
Range quality 100.0 %
Test CRC 25D59559
Copy CRC 25D59559
Copy OK

No errors occurred


AccurateRip summary

Track 1 cannot be verified as accurate (confidence 2) [8AD65C8C], AccurateRip returned [A0898AE6] (AR v2)
Track 2 cannot be verified as accurate (confidence 2) [36124D84], AccurateRip returned [8CBBFC87] (AR v2)
Track 3 cannot be verified as accurate (confidence 2) [7FD35207], AccurateRip returned [2B4C9574] (AR v2)
Track 4 cannot be verified as accurate (confidence 2) [7A0D3616], AccurateRip returned [F23CD84B] (AR v2)
Track 5 cannot be verified as accurate (confidence 2) [C2DA511C], AccurateRip returned [D64E8C63] (AR v2)
Track 6 cannot be verified as accurate (confidence 2) [C5248934], AccurateRip returned [9A4A6B3D] (AR v2)
Track 7 cannot be verified as accurate (confidence 1) [AEF67705], AccurateRip returned [C2C31D6D] (AR v2)
Track 8 cannot be verified as accurate (confidence 2) [74AA8BAC], AccurateRip returned [809070AE] (AR v2)
Track 9 cannot be verified as accurate (confidence 2) [D1CE2947], AccurateRip returned [4D2C0A18] (AR v2)
Track 10 cannot be verified as accurate (confidence 2) [8C2C7B5F], AccurateRip returned [D9B2B473] (AR v2)
Track 11 cannot be verified as accurate (confidence 2) [2BB76035], AccurateRip returned [37612C50] (AR v2)
Track 12 cannot be verified as accurate (confidence 2) [0A0254A2], AccurateRip returned [0BF8F4D3] (AR v2)

No tracks could be verified as accurate
You may have a different pressing from the one(s) in the database

End of status report

---- CUETools DB Plugin V2.1.6

[CTDB TOCID: YXpFqlIhkLHveX2bmx6E3thRDug-] found
Submit result: YXpFqlIhkLHveX2bmx6E3thRDug- has been confirmed
Track | CTDB Status
1 | (1/1) Accurately ripped
2 | (1/1) Accurately ripped
3 | (1/1) Accurately ripped
4 | (1/1) Accurately ripped
5 | (1/1) Accurately ripped
6 | (1/1) Accurately ripped
7 | (1/1) Accurately ripped
8 | (1/1) Accurately ripped
9 | (1/1) Accurately ripped
10 | (1/1) Accurately ripped
11 | (1/1) Accurately ripped
12 | (1/1) Accurately ripped
[свернуть]

Файл CUE

REM GENRE "Easy Listening"
REM DATE 2007
REM DISCID 9D083E0C
REM COMMENT "ExactAudioCopy v1.2"
PERFORMER "Nat King Cole"
TITLE "Platinum"
REM COMPOSER ""
FILE "Nat King Cole - Platinum.flac" WAVE
TRACK 01 AUDIO
TITLE "Lush Life"
PERFORMER "Nat King Cole"
REM COMPOSER "Billy Strayhorn"
INDEX 01 00:00:00
TRACK 02 AUDIO
TITLE "Because You're Mine"
PERFORMER "Nat King Cole"
REM COMPOSER "Nicholas Brodszky / Sammy Cahn"
INDEX 00 03:16:31
INDEX 01 03:18:10
TRACK 03 AUDIO
TITLE "Too Young to Go Steady"
PERFORMER "Nat King Cole"
REM COMPOSER "Harold Adamson / Jimmy McHugh"
INDEX 01 06:31:26
TRACK 04 AUDIO
TITLE "People"
PERFORMER "Nat King Cole"
REM COMPOSER "Bob Merrill / Jule Styne"
INDEX 00 09:23:07
INDEX 01 09:25:01
TRACK 05 AUDIO
TITLE "Somewhere Along the Way"
PERFORMER "Nat King Cole"
REM COMPOSER "Sammy Gallop / Ada Kurtz"
INDEX 00 12:05:36
INDEX 01 12:07:10
TRACK 06 AUDIO
TITLE "Tenderly"
PERFORMER "Nat King Cole"
REM COMPOSER "Walter Gross / Jacques Plante / Jack Lawrence"
INDEX 00 14:58:50
INDEX 01 15:00:60
TRACK 07 AUDIO
TITLE "Smile"
PERFORMER "Nat King Cole"
REM COMPOSER "John Turner / Gtoffrey Parsons / Charles Chaplin"
INDEX 00 17:55:73
INDEX 01 17:57:67
TRACK 08 AUDIO
TITLE "A Blossom Fell"
PERFORMER "Nat King Cole"
REM COMPOSER "Howard Barnes / Harold Cornelius / Dominic John"
INDEX 00 20:50:44
INDEX 01 20:52:49
TRACK 09 AUDIO
TITLE "That's You"
PERFORMER "Nat King Cole"
REM COMPOSER "Sammy Gallop / Chester Conn / Nelson Riddle"
INDEX 00 23:24:01
INDEX 01 23:25:61
TRACK 10 AUDIO
TITLE "Faith Can Move Mountaines"
PERFORMER "Nat King Cole"
REM COMPOSER "Guy Wood / Ben Raleigh"
INDEX 00 26:00:66
INDEX 01 26:02:61
TRACK 11 AUDIO
TITLE "Pretend"
PERFORMER "Nat King Cole"
REM COMPOSER "Lew Douglas / Cliff Parman / Frank LaVere / Dan Belloc"
INDEX 00 29:14:22
INDEX 01 29:15:58
TRACK 12 AUDIO
TITLE "Mother Nature and Father Time"
PERFORMER "Nat King Cole"
REM COMPOSER "Kathleen Twomey / Fred Wise / Ben Weisman"
INDEX 00 31:59:01
INDEX 01 32:00:40
[свернуть]

Лог проверки качества

AUDIOCHECKER v2.0 beta (build 457) - by Dester -
~~~~~~~~~~~~~~~~~~~~~~~~~~~~~~~~~~
-=== НЕ РЕДАКТИРУЙТЕ ЭТОТ ФАЙЛ! ===-

Путь: ...\2007 - Platinum [09463-87997-2-6]

1 -=- Nat King Cole - Platinum.flac -=- CDDA (100%)

33265620
[свернуть]

Спектр частот

[свернуть]

Скачать Nat King Cole - Platinum



password: sergych
[свернуть]

Контрольная сумма (хеш-сумма) архива

MD5: 91e57778f75313ca598b166a773e6cc7
[свернуть]
My opinion of release: 10/10
__________________
TAIFUN.Wings of Soul

Вверх
Пользователь сказал cпасибо:
swint68 (30.11.2016)
Похожие темы
Тема Автор Раздел Ответов Последнее сообщение
Сборник Nat King Cole - The World Of Nat King Cole sergych Jazz и Blues 1 04.03.2016 19:37
Сборник Nat King Cole - The Best of the Nat King Cole Trio: The Instrumental Classics sergych Jazz и Blues 0 01.03.2016 19:02
Сборник Nat King Cole - Unforgettable sergych Jazz и Blues 0 23.05.2014 19:00
Альбом Nat King Cole - Penthouse Serenade & The Piano Style Of Nat King Cole sergych Jazz и Blues 0 27.04.2014 20:32
Сборник Nat King Cole - The Best Of Nat King Cole (Ten Best Series) sergych Jazz и Blues 0 23.04.2014 22:35


Метки
2007 , easy listening , jazz , nat king cole , platinum

Опции темы

Ваши права в разделе
Вы не можете создавать новые темы
Вы не можете отвечать в темах
Вы не можете прикреплять вложения
Вы не можете редактировать свои сообщения

Быстрый переход



Текущее время: 02:31. Часовой пояс GMT +3.
Powered by vBulletin® Version 3.8.7
Copyright ©2000 - 2017, vBulletin Solutions, Inc. Перевод: zCarot
© 2008 - 2017 Taifun With Song
Яндекс.Метрика