TAIFUN With Song
Навигация
Jazz и Blues Гибкая ритмика, импровизационное начало, гармонии и мелодии - все это Jazz. Blues - жизнеутверждающая музыка, рожденная из душевной боли

А знаете ли Вы, что...
Обозначение мегабита и мегабайта!
«MB - это Мегабайт, а Mb - это Мегабит!»
 
Опции темы

  #1
Старый 15.11.2016, 20:04
sergych
Координатор
Досье
 
Аватар для sergych
Релиз Cassandra Wilson - Coming Forth by Day


2015 - Cassandra Wilson - Coming Forth by Day




Исполнитель/Artist: Cassandra Wilson
Альбом/Album: Coming Forth by Day
Год/Year: 2015
Жанр/Genre: Jazz, Jazz Vocals, Contemporary Jazz Vocals
Страна/Country: Германия
Рекорд-лейбл/Record label: Sony Music
Номер в каталоге/Catalogue #: 88875063622
Формат/Format: Free Lossless Audio Codec (*.flac)
Качество/Quality: Lossless
Тип рипа/RIP Type: image+.cue
Продолжительность/Length: 00:58:27
Источник/Source: Собственный рип
Размер/Size: 396.5 MB

Сканы в комплекте

Треклист

01. Don't Explain [0:04:35.09]
02. Billie's Blues [0:05:07.62]
03. Crazy He Calls Me [0:06:19.34]
04. You Go to My Head [0:04:09.51]
05. All of Me [0:04:06.73]
06. The Way You Look Tonight [0:03:50.56]
07. Good Morning Heartache [0:04:57.04]
08. What a Little Moonlight Can Do [0:04:09.74]
09. These Foolish Things [0:04:13.59]
10. Strange Fruit [0:04:55.24]
11. I'll Be Seeing You [0:06:09.71]
12. Last Song (For Lester) [0:05:50.49]
[свернуть]

youtube.com

[свернуть]

EAC лог

Exact Audio Copy V1.2 from 12. August 2016

EAC extraction logfile from 7. November 2016, 0:26

Cassandra Wilson / Coming Forth by Day

Used drive : ATAPI iHAS124 D Adapter: 1 ID: 0

Read mode : Secure
Utilize accurate stream : Yes
Defeat audio cache : Yes
Make use of C2 pointers : No

Read offset correction : 6
Overread into Lead-In and Lead-Out : No
Fill up missing offset samples with silence : Yes
Delete leading and trailing silent blocks : No
Null samples used in CRC calculations : Yes
Used interface : Native Win32 interface for Win NT & 2000

Used output format : User Defined Encoder
Selected bitrate : 1024 kBit/s
Quality : High
Add ID3 tag : No
Command line compressor : C:\Program Files (x86)\Exact Audio Copy\FLAC\FLAC.EXE
Additional command line options : -6 -V -T "ARTIST=%artist%" -T "TITLE=%title%" -T "ALBUM=%albumtitle%" -T "DATE=%year%" -T "TRACKNUMBER=%tracknr%" -T "GENRE=%genre%" -T "COMMENT=%comment%" -T "BAND=%albuminterpret%" -T "ALBUMARTIST=%albuminterpret%" -T "COMPOSER=%composer%" %haslyrics%--tag-from-file=LYRICS="%lyricsfile%"%haslyrics% -T "DISCNUMBER=%cdnumber%" -T "TOTALDISCS=%totalcds%" -T "TOTALTRACKS=%numtracks%" %hascover%--picture="%coverfile%"%hascover% %source% -o %dest%


TOC of the extracted CD

Track | Start | Length | Start sector | End sector
---------------------------------------------------------
1 | 0:00.00 | 4:35.09 | 0 | 20633
2 | 4:35.09 | 5:07.62 | 20634 | 43720
3 | 9:42.71 | 6:19.34 | 43721 | 72179
4 | 16:02.30 | 4:09.51 | 72180 | 90905
5 | 20:12.06 | 4:06.73 | 90906 | 109428
6 | 24:19.04 | 3:50.56 | 109429 | 126734
7 | 28:09.60 | 4:57.04 | 126735 | 149013
8 | 33:06.64 | 4:09.74 | 149014 | 167762
9 | 37:16.63 | 4:13.59 | 167763 | 186796
10 | 41:30.47 | 4:55.24 | 186797 | 208945
11 | 46:25.71 | 6:09.71 | 208946 | 236691
12 | 52:35.67 | 5:50.49 | 236692 | 262990


Range status and errors

Selected range

Filename C:\mm\Cassandra Wilson\2015 - Coming Forth By Day [88875063622]\Cassandra Wilson - Coming Forth by Day.wav

Peak level 100.0 %
Extraction speed 3.2 X
Range quality 99.9 %
Test CRC 48A8F64D
Copy CRC 48A8F64D
Copy OK

No errors occurred


AccurateRip summary

Track 1 accurately ripped (confidence 84) [ACB74105] (AR v2)
Track 2 accurately ripped (confidence 84) [8066AA9C] (AR v2)
Track 3 accurately ripped (confidence 84) [152F9C8B] (AR v2)
Track 4 accurately ripped (confidence 83) [9B02EB34] (AR v2)
Track 5 accurately ripped (confidence 84) [949B3955] (AR v2)
Track 6 accurately ripped (confidence 85) [40529206] (AR v2)
Track 7 accurately ripped (confidence 83) [F48E8ADD] (AR v2)
Track 8 accurately ripped (confidence 83) [1D8A175E] (AR v2)
Track 9 accurately ripped (confidence 84) [C52CAC44] (AR v2)
Track 10 accurately ripped (confidence 83) [4294CF1E] (AR v2)
Track 11 accurately ripped (confidence 81) [D0324512] (AR v2)
Track 12 accurately ripped (confidence 83) [44A2D68E] (AR v2)

All tracks accurately ripped

End of status report

---- CUETools DB Plugin V2.1.6

[CTDB TOCID: 6DCMN.hQ6.09RdTsIDbbLOrBYEM-] found
Submit result: 6DCMN.hQ6.09RdTsIDbbLOrBYEM- has been confirmed
Track | CTDB Status
1 | (199/200) Accurately ripped
2 | (199/200) Accurately ripped
3 | (196/200) Accurately ripped, or (2/200) differs in 5 samples @03:45:28,03:46:05
4 | (199/200) Accurately ripped
5 | (199/200) Accurately ripped
6 | (198/200) Accurately ripped
7 | (199/200) Accurately ripped
8 | (199/200) Accurately ripped
9 | (199/200) Accurately ripped
10 | (199/200) Accurately ripped
11 | (196/200) Accurately ripped, or (2/200) differs in 3 samples @00:25:36
12 | (199/200) Accurately ripped
[свернуть]

Файл CUE

REM GENRE Jazz
REM DATE 2015
REM DISCID BD0DB20C
REM COMMENT "ExactAudioCopy v1.2"
PERFORMER "Cassandra Wilson"
TITLE "Coming Forth by Day"
REM COMPOSER ""
FILE "Cassandra Wilson - Coming Forth by Day.flac" WAVE
TRACK 01 AUDIO
TITLE "Don't Explain"
PERFORMER "Cassandra Wilson"
REM COMPOSER ""
INDEX 01 00:00:00
TRACK 02 AUDIO
TITLE "Billie's Blues"
PERFORMER "Cassandra Wilson"
REM COMPOSER ""
INDEX 00 04:34:43
INDEX 01 04:35:09
TRACK 03 AUDIO
TITLE "Crazy He Calls Me"
PERFORMER "Cassandra Wilson"
REM COMPOSER ""
INDEX 00 09:42:61
INDEX 01 09:42:71
TRACK 04 AUDIO
TITLE "You Go to My Head"
PERFORMER "Cassandra Wilson"
REM COMPOSER ""
INDEX 00 16:01:36
INDEX 01 16:02:30
TRACK 05 AUDIO
TITLE "All of Me"
PERFORMER "Cassandra Wilson"
REM COMPOSER ""
INDEX 00 20:10:50
INDEX 01 20:12:06
TRACK 06 AUDIO
TITLE "The Way You Look Tonight"
PERFORMER "Cassandra Wilson"
REM COMPOSER ""
INDEX 00 24:17:70
INDEX 01 24:19:04
TRACK 07 AUDIO
TITLE "Good Morning Heartache"
PERFORMER "Cassandra Wilson"
REM COMPOSER ""
INDEX 00 28:09:09
INDEX 01 28:09:60
TRACK 08 AUDIO
TITLE "What a Little Moonlight Can Do"
PERFORMER "Cassandra Wilson"
REM COMPOSER ""
INDEX 00 33:06:54
INDEX 01 33:06:64
TRACK 09 AUDIO
TITLE "These Foolish Things"
PERFORMER "Cassandra Wilson"
REM COMPOSER ""
INDEX 00 37:16:53
INDEX 01 37:16:63
TRACK 10 AUDIO
TITLE "Strange Fruit"
PERFORMER "Cassandra Wilson"
REM COMPOSER ""
INDEX 00 41:30:32
INDEX 01 41:30:47
TRACK 11 AUDIO
TITLE "I'll Be Seeing You"
PERFORMER "Cassandra Wilson"
REM COMPOSER ""
INDEX 00 46:25:06
INDEX 01 46:25:71
TRACK 12 AUDIO
TITLE "Last Song (For Lester)"
PERFORMER "Cassandra Wilson"
REM COMPOSER ""
INDEX 00 52:34:48
INDEX 01 52:35:67
[свернуть]

Лог проверки качества

AUDIOCHECKER v2.0 beta (build 457) - by Dester -
~~~~~~~~~~~~~~~~~~~~~~~~~~~~~~~~~~
-=== НЕ РЕДАКТИРУЙТЕ ЭТОТ ФАЙЛ! ===-

Путь: ...\2015 - Coming Forth By Day [88875063622]

1 -=- Cassandra Wilson - Coming Forth by Day.flac -=- CDDA (100%)

172757188
[свернуть]

Спектр частот

[свернуть]

Скачать Cassandra Wilson - Coming Forth by Day



password: sergych
[свернуть]

Контрольная сумма (хеш-сумма) архива

MD5: f6bc8a6bb91fa3ec2b3bc448714ef0aa
[свернуть]
My opinion of release: 10/10

Release info RInfo

В этот раз альбом каверов. И вещи вроде давно знакомые, но присущая ей затянутая, навевающая восточную неторопливость, манера исполнения создаёт совершенно новую атмосферу.
__________________
TAIFUN.Wings of Soul

Вверх
Пользователь сказал cпасибо:
swint68 (16.11.2016)
Похожие темы
Тема Автор Раздел Ответов Последнее сообщение
Альбом Cassandra Wilson - Blue Skies sergych Jazz и Blues 0 04.11.2016 17:32
Альбом Cassandra Wilson - Thunderbird sergych Jazz и Blues 0 11.11.2015 19:29
Альбом Cassandra Wilson - Belly of The Sun sergych Jazz и Blues 0 11.11.2015 18:55
Релиз Cassandra Wilson - Another Country PUPOKIN Jazz и Blues 0 27.06.2012 10:14
Релиз Cassandra Wilson - Loverly PUPOKIN Jazz и Blues 0 02.01.2009 13:00


Метки
2015 , cassandra wilson , coming forth by day , contemporary jazz vocals , jazz , jazz vocals

Опции темы

Ваши права в разделе
Вы не можете создавать новые темы
Вы не можете отвечать в темах
Вы не можете прикреплять вложения
Вы не можете редактировать свои сообщения

Быстрый переход



Текущее время: 17:38. Часовой пояс GMT +3.
Powered by vBulletin® Version 3.8.10
Copyright ©2000 - 2017, vBulletin Solutions, Inc. Перевод: zCarot
© 2008 - 2017 Taifun With Song
Яндекс.Метрика