TAIFUN With Song
А знаете ли Вы, что...
Какое совпадение связало смерти солиста Boney M и Григория Распутина?
«Бобби Фаррелл, единственный мужчина в диско-группе Boney M, во время исполнения одного из главных хитов группы «Rasputin» часто гримировался в образ Распутина. Фаррелл умер от остановки сердца во время гастролей в Санкт-Петербурге 30 декабря 2010 года — того же числа и в том же городе, что и сам Распутин.»
 
Опции темы

  #1
Старый 04.09.2016, 21:45
sergych
Координатор
Досье
 
Аватар для sergych
Релиз Julio Iglesias - Raices


1989 - Julio Iglesias - Raices




Исполнитель/Artist: Julio Iglesias
Альбом/Album: Raices
Год/Year: 1989
Жанр/Genre: Pop, adult contemporary
Страна/Country: Австрия
Рекорд-лейбл/Record label: CBS Records
Номер в каталоге/Catalogue #: CBS 4653162
Формат/Format: Free Lossless Audio Codec (*.flac)
Качество/Quality: Lossless
Тип рипа/RIP Type: image+.cue
Продолжительность/Length: 00:40:08
Источник/Source: Собственный рип
Размер/Size: 308.3 MB

Сканы в комплекте

Треклист

01. Latino: [0:07:15.17]
Intro Latino
Tres Palabras
Perfidia
Amapola
Noche De Ronda
Quizas, Quizas, Quizas
Adios
El Manisero
02. Caballo Viejo/Bamboleo: [0:04:41.28]
Caballo Viejo
Bamboleo
Solo 1
03. Mexico: [0:09:15.65]
Media Vuelta
Se Me Olvido Otra Vez
Y...
Mexico Lindo
Ay Jalisco No Te Rajes
La Bamba
Solo 2
04. Brasil: [0:07:12.57]
Intro Brasil
Desafinado
Mas Que Nada
Manha De Carnaval
Aquarela Do Brasil
Tristeza
Maria Ninguem
Samba De Orfeu
05. Italia: [0:06:18.18]
Intro Italia
Torna a Surriento
Quando M'Innamoro
T'Ho Voluto Bene (Non Dimenticar)
O Sole Mio!
Quando Quando Quando
06. Francia: [0:05:24.40]
Intro Francia
Ne Me Quitte Pas
Que C'est Triste Venise
Et Maintenant
La Vie En Rose
[свернуть]

youtube.com

[свернуть]

EAC лог

Exact Audio Copy V1.2 from 12. August 2016

EAC extraction logfile from 4. September 2016, 19:27

Julio Iglesias / Raices

Used drive : PLEXTOR DVDR PX-716A Adapter: 1 ID: 0

Read mode : Secure
Utilize accurate stream : Yes
Defeat audio cache : Yes
Make use of C2 pointers : No

Read offset correction : 30
Overread into Lead-In and Lead-Out : No
Fill up missing offset samples with silence : Yes
Delete leading and trailing silent blocks : No
Null samples used in CRC calculations : Yes
Used interface : Native Win32 interface for Win NT & 2000

Used output format : User Defined Encoder
Selected bitrate : 1024 kBit/s
Quality : High
Add ID3 tag : No
Command line compressor : C:\Program Files (x86)\Exact Audio Copy\FLAC\FLAC.EXE
Additional command line options : -6 -V -T "ARTIST=%artist%" -T "TITLE=%title%" -T "ALBUM=%albumtitle%" -T "DATE=%year%" -T "TRACKNUMBER=%tracknr%" -T "GENRE=%genre%" -T "COMMENT=%comment%" -T "BAND=%albuminterpret%" -T "ALBUMARTIST=%albuminterpret%" -T "COMPOSER=%composer%" %haslyrics%--tag-from-file=LYRICS="%lyricsfile%"%haslyrics% -T "DISCNUMBER=%cdnumber%" -T "TOTALDISCS=%totalcds%" -T "TOTALTRACKS=%numtracks%" %hascover%--picture="%coverfile%"%hascover% %source% -o %dest%


TOC of the extracted CD

Track | Start | Length | Start sector | End sector
---------------------------------------------------------
1 | 0:00.00 | 7:15.17 | 0 | 32641
2 | 7:15.17 | 4:41.28 | 32642 | 53744
3 | 11:56.45 | 9:15.65 | 53745 | 95434
4 | 21:12.35 | 7:12.57 | 95435 | 127891
5 | 28:25.17 | 6:18.18 | 127892 | 156259
6 | 34:43.35 | 5:24.40 | 156260 | 180599


Range status and errors

Selected range

Filename C:\mm\Julio Iglesias\1989 - Raices [CBS 4653162]\Julio Iglesias - Raices.wav

Peak level 100.0 %
Extraction speed 9.3 X
Range quality 99.9 %
Test CRC 9BF5A66B
Copy CRC 9BF5A66B
Copy OK

No errors occurred


AccurateRip summary

Track 1 accurately ripped (confidence 13) [2E417D13] (AR v2)
Track 2 accurately ripped (confidence 13) [DB60D292] (AR v2)
Track 3 accurately ripped (confidence 13) [3D900A6F] (AR v2)
Track 4 accurately ripped (confidence 13) [4F357E44] (AR v2)
Track 5 accurately ripped (confidence 13) [827AD8F4] (AR v2)
Track 6 accurately ripped (confidence 13) [B71BBACD] (AR v2)

All tracks accurately ripped

End of status report

---- CUETools DB Plugin V2.1.6

[CTDB TOCID: ENwlI06BdZH6DK7nqhwVCk8FVj0-] found
Submit result: ENwlI06BdZH6DK7nqhwVCk8FVj0- has been confirmed
Track | CTDB Status
1 | (28/29) Accurately ripped
2 | (28/29) Accurately ripped
3 | (28/29) Accurately ripped
4 | (28/29) Accurately ripped
5 | (28/29) Accurately ripped
6 | (28/29) Accurately ripped
[свернуть]

Файл CUE

REM GENRE Latin
REM DATE 1989
REM DISCID 4C096806
REM COMMENT "ExactAudioCopy v1.2"
PERFORMER "Julio Iglesias"
TITLE "Raices"
REM COMPOSER ""
FILE "Julio Iglesias - Raices.flac" WAVE
TRACK 01 AUDIO
TITLE "Latino"
PERFORMER "Julio Iglesias"
REM COMPOSER ""
INDEX 01 00:00:00
TRACK 02 AUDIO
TITLE "Caballo Viejo, Bamboleo"
PERFORMER "Julio Iglesias"
REM COMPOSER ""
INDEX 00 07:13:52
INDEX 01 07:15:17
TRACK 03 AUDIO
TITLE "Mexico"
PERFORMER "Julio Iglesias"
REM COMPOSER ""
INDEX 00 11:55:10
INDEX 01 11:56:45
TRACK 04 AUDIO
TITLE "Brasil"
PERFORMER "Julio Iglesias"
REM COMPOSER ""
INDEX 00 21:12:00
INDEX 01 21:12:35
TRACK 05 AUDIO
TITLE "Italia"
PERFORMER "Julio Iglesias"
REM COMPOSER ""
INDEX 00 28:24:02
INDEX 01 28:25:17
TRACK 06 AUDIO
TITLE "Francia"
PERFORMER "Julio Iglesias"
REM COMPOSER ""
INDEX 00 34:42:02
INDEX 01 34:43:35
[свернуть]

Лог проверки качества

AUDIOCHECKER v2.0 beta (build 457) - by Dester -
~~~~~~~~~~~~~~~~~~~~~~~~~~~~~~~~~~
-=== НЕ РЕДАКТИРУЙТЕ ЭТОТ ФАЙЛ! ===-

Путь: ...\1989 - Raices [CBS 4653162]

1 -=- Julio Iglesias - Raices.flac -=- CDDA (100%)

237380740
[свернуть]

Спектр частот

[свернуть]

Скачать Julio Iglesias - Raices



password: sergych

CRC md5: e71b87ef92cd91b0b8bf9c85faf67dd5
[свернуть]
My opinion of release: 10/10

Release info RInfo

Попурри популярных песен разных стран.
Релиз был номинирован на премию Lo Nuestro Award в категории «Поп-альбом года» и вошёл в список «100 дисков, которые нужно иметь перед концом света» (опубликованном в 2012 году компанией Sony Music)
__________________
TAIFUN.Wings of Soul

Вверх
Похожие темы
Тема Автор Раздел Ответов Последнее сообщение
Альбом Julio Iglesias - Romantic Classics sergych Зарубежная Поп-Музыка 0 27.08.2016 08:42
Альбом Julio Iglesias - Calor sergych Зарубежная Поп-Музыка 0 19.08.2016 23:54
Альбом Julio Iglesias - Julio sergych Зарубежная Поп-Музыка 1 05.04.2015 22:55
Сборник Julio Iglesias - Love Songs sergych Зарубежная Поп-Музыка 0 05.09.2014 18:28
Альбом Julio Iglesias - Crazy sergych Зарубежная Поп-Музыка 0 26.04.2014 16:10


Метки
1989 , adult contemporary , julio iglesias , pop , raices

Опции темы

Ваши права в разделе
Вы не можете создавать новые темы
Вы не можете отвечать в темах
Вы не можете прикреплять вложения
Вы не можете редактировать свои сообщения

Быстрый переход



Текущее время: 21:14. Часовой пояс GMT +3.
Powered by vBulletin® Version 3.8.7
Copyright ©2000 - 2017, vBulletin Solutions, Inc. Перевод: zCarot
© 2008 - 2017 Taifun With Song
Яндекс.Метрика