TAIFUN With Song
Вернуться   TAIFUN With Song > Music (обменник) > Другие направления музыки > Instrumental
Расширенный поиск
Instrumental Релизы. Инструментальная музыка.

А знаете ли Вы, что...
Почему исполнение песни «Happy Birthday to You» может быть незаконным?
«Известная песенка «Happy Birthday to You» по сей день находится под защитой авторских прав в США. Её можно бесплатно петь в обычном кругу семьи или друзей, но за коммерческое использование, например в фильме или поздравительной открытке, необходимо платить отчисления. Сейчас песня приносит ежегодно 2 миллиона долларов компании-владельцу прав на неё.»
 
Опции темы

  #1
Старый 20.08.2016, 08:03
sergych
Координатор
Досье
 
Аватар для sergych
Релиз Bob James & Keiko Matsui - Altair & Vega


2011 - Bob James & Keiko Matsui - Altair & Vega




Исполнитель/Artist: Bob James & Keiko Matsui
Альбом/Album: Altair & Vega
Год/Year: 2011
Жанр/Genre: instrumental, jazz
Страна/Country: Соединённые Штаты
Рекорд-лейбл/Record label: Tappan Zee Records / Eone Music
Номер в каталоге/Catalogue #: EOM-CD-2125
Формат/Format: Free Lossless Audio Codec (*.flac)
Качество/Quality: Lossless
Тип рипа/RIP Type: image+.cue
Продолжительность/Length: 00:47:44
Источник/Source: Собственный рип
Размер/Size: 199.4 MB

Сканы в комплекте

Треклист

01. Altair & Vega [0:06:51.40]
02. Frozen Lake [0:06:42.57]
03. Divertimento (The Professor & the Student) [0:06:55.30]
04. Midnight Stone [0:06:07.27]
05. Invisble Wing [0:04:30.25]
06. The Forever Variations [0:13:16.60]
07. Chorale from Canata BWV [0:03:20.06]
[свернуть]

youtube.com

[свернуть]

Исполнители/Performers

Bob James, Keiko Matsui - piano
[свернуть]

EAC лог

Exact Audio Copy V1.1 from 23. June 2015

EAC extraction logfile from 16. August 2016, 21:23

Bob James, Keiko Matsui / Altair & Vega

Used drive : PLEXTOR DVDR PX-716A Adapter: 1 ID: 1

Read mode : Secure
Utilize accurate stream : Yes
Defeat audio cache : Yes
Make use of C2 pointers : No

Read offset correction : 30
Overread into Lead-In and Lead-Out : No
Fill up missing offset samples with silence : Yes
Delete leading and trailing silent blocks : No
Null samples used in CRC calculations : Yes
Used interface : Native Win32 interface for Win NT & 2000

Used output format : User Defined Encoder
Selected bitrate : 1024 kBit/s
Quality : High
Add ID3 tag : No
Command line compressor : C:\Program Files (x86)\Exact Audio Copy\FLAC\FLAC.EXE
Additional command line options : -6 -V -T "ARTIST=%artist%" -T "TITLE=%title%" -T "ALBUM=%albumtitle%" -T "DATE=%year%" -T "TRACKNUMBER=%tracknr%" -T "GENRE=%genre%" -T "COMMENT=%comment%" -T "BAND=%albuminterpret%" -T "ALBUMARTIST=%albuminterpret%" -T "COMPOSER=%composer%" %haslyrics%--tag-from-file=LYRICS="%lyricsfile%"%haslyrics% -T "DISCNUMBER=%cdnumber%" -T "TOTALDISCS=%totalcds%" -T "TOTALTRACKS=%numtracks%" %hascover%--picture="%coverfile%"%hascover% %source% -o %dest%


TOC of the extracted CD

Track | Start | Length | Start sector | End sector
---------------------------------------------------------
1 | 0:00.00 | 6:51.40 | 0 | 30864
2 | 6:51.40 | 6:42.57 | 30865 | 61071
3 | 13:34.22 | 6:55.30 | 61072 | 92226
4 | 20:29.52 | 6:07.27 | 92227 | 119778
5 | 26:37.04 | 4:30.25 | 119779 | 140053
6 | 31:07.29 | 13:16.60 | 140054 | 199813
7 | 44:24.14 | 3:20.06 | 199814 | 214819


Range status and errors

Selected range

Filename C:\mm\Bob James & Keiko Matsui\2011 - Altair & Vega [EOM-CD-2125]\Bob James, Keiko Matsui - Altair & Vega.wav

Peak level 95.4 %
Extraction speed 12.5 X
Range quality 100.0 %
Test CRC C96D7B2D
Copy CRC C96D7B2D
Copy OK

No errors occurred


AccurateRip summary

Track 1 accurately ripped (confidence 2) [9BEB8725] (AR v2)
Track 2 accurately ripped (confidence 2) [697F5681] (AR v2)
Track 3 accurately ripped (confidence 2) [74AB7EA2] (AR v2)
Track 4 accurately ripped (confidence 2) [C6B40176] (AR v2)
Track 5 accurately ripped (confidence 2) [77732672] (AR v2)
Track 6 accurately ripped (confidence 2) [CC301B13] (AR v2)
Track 7 accurately ripped (confidence 2) [5AB1EEDB] (AR v2)

All tracks accurately ripped

End of status report

---- CUETools DB Plugin V2.1.6

[CTDB TOCID: okW2tsyg30kZDH9lh6CIqSkJCAg-] found
Submit result: okW2tsyg30kZDH9lh6CIqSkJCAg- has been confirmed
Track | CTDB Status
1 | (17/17) Accurately ripped
2 | (17/17) Accurately ripped
3 | (17/17) Accurately ripped
4 | (17/17) Accurately ripped
5 | (17/17) Accurately ripped
6 | (16/17) Accurately ripped
7 | (15/17) Accurately ripped, or (1/17) differs in 9961 samples @03:19:58-03:19:70
[свернуть]

Файл CUE

REM GENRE Jazz
REM DATE 2011
REM DISCID 640B3007
REM COMMENT "ExactAudioCopy v1.1"
PERFORMER "Bob James, Keiko Matsui"
TITLE "Altair & Vega"
FILE "Bob James, Keiko Matsui - Altair & Vega.flac" WAVE
TRACK 01 AUDIO
TITLE "Altair & Vega"
PERFORMER "Bob James, Keiko Matsui"
INDEX 01 00:00:00
TRACK 02 AUDIO
TITLE "Frozen Lake"
PERFORMER "Bob James, Keiko Matsui"
INDEX 00 06:48:61
INDEX 01 06:51:40
TRACK 03 AUDIO
TITLE "Divertimento (The Professor & the Student)"
PERFORMER "Bob James, Keiko Matsui"
INDEX 01 13:34:22
TRACK 04 AUDIO
TITLE "Midnight Stone"
PERFORMER "Bob James, Keiko Matsui"
INDEX 00 20:27:00
INDEX 01 20:29:52
TRACK 05 AUDIO
TITLE "Invisble Wing"
PERFORMER "Bob James, Keiko Matsui"
INDEX 00 26:29:51
INDEX 01 26:37:04
TRACK 06 AUDIO
TITLE "The Forever Variations"
PERFORMER "Bob James, Keiko Matsui"
INDEX 00 31:01:57
INDEX 01 31:07:29
TRACK 07 AUDIO
TITLE "Chorale from Canata BWV"
PERFORMER "Bob James, Keiko Matsui"
INDEX 00 44:18:63
INDEX 01 44:24:14
[свернуть]

Лог проверки качества

AUDIOCHECKER v2.0 beta (build 457) - by Dester - [Ссылки могут видеть только зарегистрированные пользователи. ]
~~~~~~~~~~~~~~~~~~~~~~~~~~~~~~~~~~
-=== НЕ РЕДАКТИРУЙТЕ ЭТОТ ФАЙЛ! ===-

Путь: ...\2011 - Altair & Vega [EOM-CD-2125]

1 -=- Bob James, Keiko Matsui - Altair & Vega.flac -=- MPEG (89%)

66087124
[свернуть]

Спектр частот

[свернуть]

Скачать Bob James & Keiko Matsui - Altair & Vega

[Ссылки могут видеть только зарегистрированные пользователи. ]

password: sergych
[свернуть]
My opinion of release: 10/10
__________________
TAIFUN.Wings of Soul

Вверх
Похожие темы
Тема Автор Раздел Ответов Последнее сообщение
Саундтрек Keiko Matsui - Hidamari No PUPOKIN Саундтреки 0 30.01.2011 10:01
Релиз Keiko Matsui - The Road... PUPOKIN Jazz и Blues 0 27.01.2011 11:09
Live Keiko Matsui - White Owl PUPOKIN Jazz и Blues 0 26.11.2010 10:36
Альбом Keiko Matsui - Wildflower PUPOKIN Jazz и Blues 0 15.10.2009 10:29
Keiko Matsui МУЗЫКА Альбомы и концерты 4 22.09.2008 19:40


Метки
2011 , altair & vega , bob james & keiko matsui , instrumental , jazz

Опции темы

Ваши права в разделе
Вы не можете создавать новые темы
Вы не можете отвечать в темах
Вы не можете прикреплять вложения
Вы не можете редактировать свои сообщения

Быстрый переход



Текущее время: 16:35. Часовой пояс GMT +3.
Powered by vBulletin® Version 3.8.7
Copyright ©2000 - 2017, vBulletin Solutions, Inc. Перевод: zCarot
© 2008 - 2017 Taifun With Song
Яндекс.Метрика