TAIFUN With Song
Вернуться   TAIFUN With Song > Music (обменник) > Другие направления музыки > R&B
Расширенный поиск
R&B Ссылки на музыку в этом стиле

А знаете ли Вы, что...
Какой композитор писал музыку, будучи глухим?
«На момент написания своей знаменитой девятой симфонии Бетховен был абсолютно глух.»
 
Опции темы

  #1
Старый 14.07.2016, 19:28
sergych
Координатор
Досье
 
Аватар для sergych
Релиз Toni Braxton - Platinum & Gold Collection


2004 - Toni Braxton - Platinum & Gold Collection




Исполнитель/Artist: Toni Braxton
Альбом/Album: Platinum & Gold Collection
Год/Year: 2004
Жанр/Genre: R&B, pop, soul
Страна/Country: Соединённые Штаты
Рекорд-лейбл/Record label: Arista / Sony Music
Номер в каталоге/Catalogue #: 82876 63565 2
Формат/Format: Free Lossless Audio Codec (*.flac)
Качество/Quality: Lossless
Тип рипа/RIP Type: image+.cue
Продолжительность/Length: 00:50:44
Источник/Source: Собственный рип
Размер/Size: 399.9 MB

Сканы в комплекте

Треклист

01. Another Sad Love Song [0:03:51.09]
02. Breathe Again [0:04:18.37]
03. How Could An Angel Break My Heart [0:04:21.46]
04. I Belong To You [0:03:53.62]
05. You Mean The World [0:04:00.65]
06. Un-Break My Heart [0:04:29.58]
07. How Many Ways [0:05:47.40]
08. He Wasn't Man Enough [0:04:01.06]
09. Maybe [0:03:59.07]
10. A Better Man [0:04:00.51]
11. Hit The Freeway [0:03:48.50]
12. Spanish Guitar [0:04:10.58]
[свернуть]

youtube.com

[свернуть]

EAC лог

Exact Audio Copy V1.1 from 23. June 2015

EAC extraction logfile from 13. July 2016, 21:14

Toni Braxton / Platinum Collection

Used drive : ATAPI iHAS124 D Adapter: 1 ID: 0

Read mode : Secure
Utilize accurate stream : Yes
Defeat audio cache : Yes
Make use of C2 pointers : No

Read offset correction : 6
Overread into Lead-In and Lead-Out : No
Fill up missing offset samples with silence : Yes
Delete leading and trailing silent blocks : No
Null samples used in CRC calculations : Yes
Used interface : Native Win32 interface for Win NT & 2000

Used output format : User Defined Encoder
Selected bitrate : 1024 kBit/s
Quality : High
Add ID3 tag : No
Command line compressor : C:\Program Files (x86)\Exact Audio Copy\FLAC\FLAC.EXE
Additional command line options : -6 -V -T "ARTIST=%artist%" -T "TITLE=%title%" -T "ALBUM=%albumtitle%" -T "DATE=%year%" -T "TRACKNUMBER=%tracknr%" -T "GENRE=%genre%" -T "COMMENT=%comment%" -T "BAND=%albuminterpret%" -T "ALBUMARTIST=%albuminterpret%" -T "COMPOSER=%composer%" %haslyrics%--tag-from-file=LYRICS="%lyricsfile%"%haslyrics% -T "DISCNUMBER=%cdnumber%" -T "TOTALDISCS=%totalcds%" -T "TOTALTRACKS=%numtracks%" %hascover%--picture="%coverfile%"%hascover% %source% -o %dest%


TOC of the extracted CD

Track | Start | Length | Start sector | End sector
---------------------------------------------------------
1 | 0:00.00 | 3:51.09 | 0 | 17333
2 | 3:51.09 | 4:18.37 | 17334 | 36720
3 | 8:09.46 | 4:21.46 | 36721 | 56341
4 | 12:31.17 | 3:53.62 | 56342 | 73878
5 | 16:25.04 | 4:00.65 | 73879 | 91943
6 | 20:25.69 | 4:29.58 | 91944 | 112176
7 | 24:55.52 | 5:47.40 | 112177 | 138241
8 | 30:43.17 | 4:01.06 | 138242 | 156322
9 | 34:44.23 | 3:59.07 | 156323 | 174254
10 | 38:43.30 | 4:00.51 | 174255 | 192305
11 | 42:44.06 | 3:48.50 | 192306 | 209455
12 | 46:32.56 | 4:10.58 | 209456 | 228263


Range status and errors

Selected range

Filename C:\mm\Toni Braxton\2004 - Platinum & Gold Collection [82876 63565 2]\Toni Braxton - Platinum Collection.wav

Peak level 100.0 %
Extraction speed 3.4 X
Range quality 100.0 %
Test CRC EBC51637
Copy CRC EBC51637
Copy OK

No errors occurred


AccurateRip summary

Track 1 accurately ripped (confidence 4) [D6F361D1] (AR v2)
Track 2 accurately ripped (confidence 4) [DA1449D6] (AR v2)
Track 3 accurately ripped (confidence 4) [4919B63F] (AR v2)
Track 4 accurately ripped (confidence 4) [745251AF] (AR v2)
Track 5 accurately ripped (confidence 4) [4F0B3FDB] (AR v2)
Track 6 accurately ripped (confidence 4) [22315713] (AR v2)
Track 7 accurately ripped (confidence 4) [8F3FFE13] (AR v2)
Track 8 accurately ripped (confidence 4) [B040AE39] (AR v2)
Track 9 accurately ripped (confidence 4) [AC010D52] (AR v2)
Track 10 accurately ripped (confidence 4) [6BF71BEA] (AR v2)
Track 11 accurately ripped (confidence 4) [58013336] (AR v2)
Track 12 accurately ripped (confidence 4) [15F720D9] (AR v2)

All tracks accurately ripped

End of status report

---- CUETools DB Plugin V2.1.6

[CTDB TOCID: fBQdwEmEdZ3FpPoDAm0oHript9A-] found
Submit result: fBQdwEmEdZ3FpPoDAm0oHript9A- has been confirmed
Track | CTDB Status
1 | (21/21) Accurately ripped
2 | (21/21) Accurately ripped
3 | (21/21) Accurately ripped
4 | (21/21) Accurately ripped
5 | (21/21) Accurately ripped
6 | (21/21) Accurately ripped
7 | (21/21) Accurately ripped
8 | (21/21) Accurately ripped
9 | (21/21) Accurately ripped
10 | (21/21) Accurately ripped
11 | (21/21) Accurately ripped
12 | (21/21) Accurately ripped
[свернуть]

Файл CUE

REM GENRE Pop
REM DATE 2004
REM DISCID B70BE30C
REM COMMENT "ExactAudioCopy v1.1"
PERFORMER "Toni Braxton"
TITLE "Platinum Collection"
FILE "Toni Braxton - Platinum Collection.flac" WAVE
TRACK 01 AUDIO
TITLE "Another Sad Love Song"
PERFORMER "Toni Braxton"
INDEX 01 00:00:00
TRACK 02 AUDIO
TITLE "Breathe Again"
PERFORMER "Toni Braxton"
INDEX 00 03:50:05
INDEX 01 03:51:09
TRACK 03 AUDIO
TITLE "How Could An Angel Break My Heart"
PERFORMER "Toni Braxton"
INDEX 00 08:06:54
INDEX 01 08:09:46
TRACK 04 AUDIO
TITLE "I Belong To You"
PERFORMER "Toni Braxton"
INDEX 00 12:29:58
INDEX 01 12:31:17
TRACK 05 AUDIO
TITLE "You Mean The World"
PERFORMER "Toni Braxton"
INDEX 00 16:23:31
INDEX 01 16:25:04
TRACK 06 AUDIO
TITLE "Un-Break My Heart"
PERFORMER "Toni Braxton"
INDEX 00 20:24:33
INDEX 01 20:25:69
TRACK 07 AUDIO
TITLE "How Many Ways"
PERFORMER "Toni Braxton"
INDEX 00 24:54:18
INDEX 01 24:55:52
TRACK 08 AUDIO
TITLE "He Wasn't Man Enough"
PERFORMER "Toni Braxton"
INDEX 00 30:41:26
INDEX 01 30:43:17
TRACK 09 AUDIO
TITLE "Maybe"
PERFORMER "Toni Braxton"
INDEX 01 34:44:23
TRACK 10 AUDIO
TITLE "A Better Man"
PERFORMER "Toni Braxton"
INDEX 00 38:42:02
INDEX 01 38:43:30
TRACK 11 AUDIO
TITLE "Hit The Freeway"
PERFORMER "Toni Braxton"
INDEX 00 42:41:70
INDEX 01 42:44:06
TRACK 12 AUDIO
TITLE "Spanish Guitar"
PERFORMER "Toni Braxton"
INDEX 01 46:32:56
[свернуть]

Лог проверки качества

AUDIOCHECKER v2.0 beta (build 457) - by Dester - [Ссылки могут видеть только зарегистрированные пользователи. ]
~~~~~~~~~~~~~~~~~~~~~~~~~~~~~~~~~~
-=== НЕ РЕДАКТИРУЙТЕ ЭТОТ ФАЙЛ! ===-

Путь: ...\2004 - Platinum & Gold Collection [82876 63565 2]

1 -=- Tony Braxton - Platinum Collection.flac -=- CDDA (100%)

144926964
[свернуть]

Спектр частот

[свернуть]

Скачать Toni Braxton - Platinum & Gold Collection

[Ссылки могут видеть только зарегистрированные пользователи. ]

password: sergych
[свернуть]
My opinion of release: 10/10

Release info RInfo

"Platinum & Gold Collection" peaked at number 78 on the Billboard's Top R&B Albums chart, spending 5 weeks on the chart
__________________
TAIFUN.Wings of Soul

Вверх
Пользователь сказал cпасибо:
Dmitri (14.07.2016)
Похожие темы
Тема Автор Раздел Ответов Последнее сообщение
Сборник Toni Braxton - Artist Collection sergych R&B 0 20.06.2015 18:29
Альбом Toni Braxton - Toni Braxton sergych R&B 1 19.05.2015 17:20
Альбом Toni Braxton - Secrets sergych R&B 3 19.05.2015 17:08
Альбом Toni Braxton – Pulse sergych R&B 0 24.12.2013 18:40
Сборник The Alan Parsons Project - Platinum & Gold Collection sergych Progressive Rock 0 14.08.2010 18:47


Метки
2004 , platinum & gold collection , pop , r&b , soul , toni braxton

Опции темы

Ваши права в разделе
Вы не можете создавать новые темы
Вы не можете отвечать в темах
Вы не можете прикреплять вложения
Вы не можете редактировать свои сообщения

Быстрый переход



Текущее время: 08:29. Часовой пояс GMT +3.
Powered by vBulletin® Version 3.8.7
Copyright ©2000 - 2017, vBulletin Solutions, Inc. Перевод: zCarot
© 2008 - 2017 Taifun With Song
Яндекс.Метрика