TAIFUN With Song
Вернуться   TAIFUN With Song > Music (обменник) > Rock > Pop Rock
Расширенный поиск
Pop Rock Поп-рок — жанр музыки, объединяющий элементы поп-музыки и рок-музыки. Песни характеризуются простой структурой, запоминающимися мелодиями, повторением музыкальных фраз (от попа), использованием в качестве основных инструментов электрогитар и ударных и агрессивным настроением (от рока).

А знаете ли Вы, что...
Какая опера на произведение немецкого классика дала музыку самой известной пионерской песне?
«Музыка к пионерской песне «Взвейтесь кострами, синие ночи» написана на основе «Марша солдат» из оперы Шарля Гуно «Фауст».»
 
Опции темы

  #1
Старый 01.07.2016, 17:39
sergych
Координатор
Досье
 
Аватар для sergych
Релиз Tina Turner - Tina!


2008 - Tina Turner - Tina!




Исполнитель/Artist: Tina Turner
Альбом/Album: Tina!
Год/Year: 2008
Жанр/Genre: Pop, Dance
Страна/Country: Соединённые Штаты
Рекорд-лейбл/Record label: Capitol Records
Номер в каталоге/Catalogue #: 509992 37422 22
Формат/Format: Free Lossless Audio Codec (*.flac)
Качество/Quality: Lossless
Тип рипа/RIP Type: image+.cue
Продолжительность/Length: 01:16:33
Источник/Source: Собственный рип
Размер/Size: 616.4 MB

Сканы в комплекте

Треклист

01. Steamy Windows [0:04:05.08]
02. River Deep - Mountain High [0:03:40.08]
03. Better Be Good To Me [0:05:10.69]
04. The Acid Queen [0:03:50.22]
05. What You Get Is What You See [0:04:28.35]
06. What's Love Got To Do with It [0:03:48.28]
07. Private Dancer [0:04:01.43]
08. We Don't Need Another Hero (Thunderdome) [0:04:16.44]
09. I Don't Wanna Fight [0:04:25.30]
10. Goldeneye [0:04:43.17]
11. Let's Stay Together (Live in Amsterdam) [0:04:10.56]
12. I Can't Stand the Rain (Live in Amsterdam) [0:03:19.71]
13. Addicted To Love (Live at Camden Palace) [0:05:22.07]
14. The Best [0:05:29.59]
15. Proud Mary [0:05:26.03]
16. Nutbush City Limits [0:03:02.06]
17. It Would Be A Crime [0:03:28.01]
18. I'm Ready [0:03:44.56]
[свернуть]

youtube.com

[свернуть]

EAC лог

Exact Audio Copy V1.1 from 23. June 2015

EAC extraction logfile from 26. June 2016, 18:17

Tina Turner / Tina!

Used drive : ATAPI iHAS124 D Adapter: 0 ID: 2

Read mode : Secure
Utilize accurate stream : Yes
Defeat audio cache : Yes
Make use of C2 pointers : No

Read offset correction : 6
Overread into Lead-In and Lead-Out : No
Fill up missing offset samples with silence : Yes
Delete leading and trailing silent blocks : No
Null samples used in CRC calculations : Yes
Used interface : Installed external ASPI interface

Used output format : User Defined Encoder
Selected bitrate : 1024 kBit/s
Quality : High
Add ID3 tag : Yes
Command line compressor : C:\Program Files (x86)\Exact Audio Copy\Flac\flac.exe
Additional command line options : -6 -V -T "ARTIST=%artist%" -T "TITLE=%title%" -T "ALBUM=%albumtitle%" -T "DATE=%year%" -T "TRACKNUMBER=%tracknr%" -T "GENRE=%genre%" -T "COMMENT=%comment%" -T "BAND=%albuminterpret%" -T "COMPOSER=%composer%" %haslyrics%--tag-from-file=LYRICS="%lyricsfile%"%haslyrics% -T "DISCNUMBER=%cdnumber%" -T "TOTALDISCS=%totalcds%" -T "TOTALTRACKS=%numtracks%" %hascover%--picture="%coverfile%"%hascover% %source% -o %dest%


TOC of the extracted CD

Track | Start | Length | Start sector | End sector
---------------------------------------------------------
1 | 0:00.00 | 4:05.08 | 0 | 18382
2 | 4:05.08 | 3:40.08 | 18383 | 34890
3 | 7:45.16 | 5:10.69 | 34891 | 58209
4 | 12:56.10 | 3:50.22 | 58210 | 75481
5 | 16:46.32 | 4:28.35 | 75482 | 95616
6 | 21:14.67 | 3:48.28 | 95617 | 112744
7 | 25:03.20 | 4:01.43 | 112745 | 130862
8 | 29:04.63 | 4:16.44 | 130863 | 150106
9 | 33:21.32 | 4:25.30 | 150107 | 170011
10 | 37:46.62 | 4:43.17 | 170012 | 191253
11 | 42:30.04 | 4:10.56 | 191254 | 210059
12 | 46:40.60 | 3:19.71 | 210060 | 225055
13 | 50:00.56 | 5:22.07 | 225056 | 249212
14 | 55:22.63 | 5:29.59 | 249213 | 273946
15 | 60:52.47 | 5:26.03 | 273947 | 298399
16 | 66:18.50 | 3:02.06 | 298400 | 312055
17 | 69:20.56 | 3:28.01 | 312056 | 327656
18 | 72:48.57 | 3:44.56 | 327657 | 344512


Range status and errors

Selected range

Filename C:\mm\Tina Turner\2008 - Tina! [509992 37422 22]\Tina Turner - Tina!.wav

Peak level 98.8 %
Extraction speed 9.9 X
Range quality 100.0 %
Test CRC 5C20912E
Copy CRC 5C20912E
Copy OK

No errors occurred


AccurateRip summary

Track 1 accurately ripped (confidence 24) [764D4ACC] (AR v2)
Track 2 accurately ripped (confidence 24) [F53DADF6] (AR v2)
Track 3 accurately ripped (confidence 25) [3289DFC4] (AR v2)
Track 4 accurately ripped (confidence 25) [E061F956] (AR v2)
Track 5 accurately ripped (confidence 25) [2C197B7C] (AR v2)
Track 6 accurately ripped (confidence 25) [8BB7DFD0] (AR v2)
Track 7 accurately ripped (confidence 25) [57689706] (AR v2)
Track 8 accurately ripped (confidence 25) [2FEE0C8E] (AR v2)
Track 9 accurately ripped (confidence 25) [9697EC25] (AR v2)
Track 10 accurately ripped (confidence 25) [5038D11D] (AR v2)
Track 11 accurately ripped (confidence 23) [487F0501] (AR v2)
Track 12 accurately ripped (confidence 23) [CE630AD4] (AR v2)
Track 13 accurately ripped (confidence 23) [F67DF965] (AR v2)
Track 14 accurately ripped (confidence 25) [D7E4D34B] (AR v2)
Track 15 accurately ripped (confidence 25) [9215BEA1] (AR v2)
Track 16 accurately ripped (confidence 25) [D5D214D7] (AR v2)
Track 17 accurately ripped (confidence 24) [3173D2B9] (AR v2)
Track 18 accurately ripped (confidence 23) [9FC3CA5E] (AR v2)

All tracks accurately ripped

End of status report

---- CUETools DB Plugin V2.1.6

[CTDB TOCID: CTLNH__k8fhj5ccO2.AkMNtGOrQ-] found
Submit result: CTLNH__k8fhj5ccO2.AkMNtGOrQ- has been confirmed
Track | CTDB Status
1 | (102/104) Accurately ripped
2 | (102/104) Accurately ripped
3 | (102/104) Accurately ripped
4 | (102/104) Accurately ripped
5 | (102/104) Accurately ripped
6 | (102/104) Accurately ripped
7 | (102/104) Accurately ripped
8 | (102/104) Accurately ripped
9 | (102/104) Accurately ripped
10 | (101/104) Accurately ripped
11 | (102/104) Accurately ripped
12 | (102/104) Accurately ripped
13 | (102/104) Accurately ripped
14 | (102/104) Accurately ripped
15 | (101/104) Accurately ripped
16 | (101/104) Accurately ripped
17 | (100/104) Accurately ripped
18 | ( 99/104) Accurately ripped
[свернуть]

Файл CUE

REM GENRE R&B
REM DATE 2008
REM DISCID EF11F112
REM COMMENT "ExactAudioCopy v1.1"
PERFORMER "Tina Turner"
TITLE "Tina!"
FILE "Tina Turner - Tina!.flac" WAVE
TRACK 01 AUDIO
TITLE "Steamy Windows"
PERFORMER "Tina Turner"
INDEX 01 00:00:00
TRACK 02 AUDIO
TITLE "River Deep - Mountain High"
PERFORMER "Tina Turner"
INDEX 01 04:05:08
TRACK 03 AUDIO
TITLE "Better Be Good To Me"
PERFORMER "Tina Turner"
INDEX 01 07:45:16
TRACK 04 AUDIO
TITLE "The Acid Queen"
PERFORMER "Tina Turner"
INDEX 01 12:56:10
TRACK 05 AUDIO
TITLE "What You Get Is What You See"
PERFORMER "Tina Turner"
INDEX 01 16:46:32
TRACK 06 AUDIO
TITLE "What's Love Got To Do with It"
PERFORMER "Tina Turner"
INDEX 01 21:14:67
TRACK 07 AUDIO
TITLE "Private Dancer"
PERFORMER "Tina Turner"
INDEX 01 25:03:20
TRACK 08 AUDIO
TITLE "We Don't Need Another Hero (Thunderdome)"
PERFORMER "Tina Turner"
INDEX 01 29:04:63
TRACK 09 AUDIO
TITLE "I Don't Wanna Fight"
PERFORMER "Tina Turner"
INDEX 01 33:21:32
TRACK 10 AUDIO
TITLE "Goldeneye"
PERFORMER "Tina Turner"
INDEX 01 37:46:62
TRACK 11 AUDIO
TITLE "Let's Stay Together (Live in Amsterdam)"
PERFORMER "Tina Turner"
INDEX 01 42:30:04
TRACK 12 AUDIO
TITLE "I Can't Stand the Rain (Live in Amsterdam)"
PERFORMER "Tina Turner"
INDEX 01 46:40:60
TRACK 13 AUDIO
TITLE "Addicted To Love (Live at Camden Palace)"
PERFORMER "Tina Turner"
INDEX 01 50:00:56
TRACK 14 AUDIO
TITLE "The Best"
PERFORMER "Tina Turner"
INDEX 01 55:22:63
TRACK 15 AUDIO
TITLE "Proud Mary"
PERFORMER "Tina Turner"
INDEX 01 60:52:47
TRACK 16 AUDIO
TITLE "Nutbush City Limits"
PERFORMER "Tina Turner"
INDEX 01 66:18:50
TRACK 17 AUDIO
TITLE "It Would Be A Crime"
PERFORMER "Tina Turner"
INDEX 00 69:16:28
INDEX 01 69:20:56
TRACK 18 AUDIO
TITLE "I'm Ready"
PERFORMER "Tina Turner"
INDEX 01 72:48:57
[свернуть]

Лог проверки качества

AUDIOCHECKER v2.0 beta (build 457) - by Dester -
~~~~~~~~~~~~~~~~~~~~~~~~~~~~~~~~~~
-=== НЕ РЕДАКТИРУЙТЕ ЭТОТ ФАЙЛ! ===-

Путь: ...\2008 - Tina! [509992 37422 22]

1 -=- Tina Turner - Tina!.flac -=- CDDA (100%)

76435364
[свернуть]

Спектр частот

[свернуть]

Скачать Tina Turner - Tina!



password: sergych
[свернуть]
My opinion of release: 10/10
__________________
TAIFUN.Wings of Soul

Вверх
2 пользователя(ей) сказали cпасибо:
Chert (25.07.2016), swint68 (02.07.2016)
Похожие темы
Тема Автор Раздел Ответов Последнее сообщение
Альбом Tina Turner - What's Love Got To Do With It sergych Pop Rock 1 26.02.2016 17:49
Релиз Tina Turner - Tina Live PUPOKIN Pop Rock 0 26.09.2009 14:47
Альбом Tina Turner - Mad Max III, Beyond Thunderdome PUPOKIN Pop Rock 0 21.08.2009 11:40
Альбом Tina Turner - Rough PUPOKIN Pop Rock 0 15.08.2009 11:00
Альбом Tina Turner - Tina Turner Turns The Country On PUPOKIN Pop Rock 0 11.08.2009 10:17


Метки
2008 , dance , pop , tina turner , tina!

Опции темы

Ваши права в разделе
Вы не можете создавать новые темы
Вы не можете отвечать в темах
Вы не можете прикреплять вложения
Вы не можете редактировать свои сообщения

Быстрый переход



Текущее время: 07:11. Часовой пояс GMT +3.
Powered by vBulletin® Version 3.8.7
Copyright ©2000 - 2017, vBulletin Solutions, Inc. Перевод: zCarot
© 2008 - 2017 Taifun With Song
Яндекс.Метрика