TAIFUN With Song
R&B Ссылки на музыку в этом стиле

А знаете ли Вы, что...
Какая опера на произведение немецкого классика дала музыку самой известной пионерской песне?
«Музыка к пионерской песне «Взвейтесь кострами, синие ночи» написана на основе «Марша солдат» из оперы Шарля Гуно «Фауст».»
 
Опции темы

  #1
Старый 28.06.2016, 20:03
sergych
Координатор
Досье
 
Аватар для sergych
Релиз Alicia Keys - VH-1 Storytellers


2013 - Alicia Keys - VH-1 Storytellers




Исполнитель/Artist: Alicia Keys
Альбом/Album: VH-1 Storytellers
Год/Year: 2013
Жанр/Genre: R&B, Soul, Pop
Страна/Country: Европа
Рекорд-лейбл/Record label: RCA Records
Номер в каталоге/Catalogue #: 88883-72631-2
Формат/Format: Free Lossless Audio Codec (*.flac)
Качество/Quality: Lossless
Тип рипа/RIP Type: image+.cue
Продолжительность/Length: 00:59:46
Источник/Source: Собственный рип
Размер/Size: 429.8 MB

Сканы в комплекте

Треклист

01. No One [0:06:09.73]
02. Brand New Me [0:04:49.56]
03. You Don't Know My Name [0:07:00.45]
04. Empire State Of Mind, (Pt. II) Broken Down [0:04:18.03]
05. Not Even The King [0:04:11.06]
06. Fallin' [0:04:44.27]
07. If I Ain't Got You [0:07:17.09]
08. Girl On Fire [0:04:57.01]
09. New Day [0:04:48.27]
10. Try Sleeping With A Broken Heart [0:05:49.49]
11. Un-Thinkable (I'm Ready) [0:05:40.10]
[свернуть]

youtube.com

[свернуть]

EAC лог

Exact Audio Copy V1.1 from 23. June 2015

EAC extraction logfile from 22. June 2016, 22:24

Alicia Keys / VH1 Storytellers

Used drive : ATAPI iHAS124 D Adapter: 0 ID: 2

Read mode : Secure
Utilize accurate stream : Yes
Defeat audio cache : Yes
Make use of C2 pointers : No

Read offset correction : 6
Overread into Lead-In and Lead-Out : No
Fill up missing offset samples with silence : Yes
Delete leading and trailing silent blocks : No
Null samples used in CRC calculations : Yes
Used interface : Installed external ASPI interface

Used output format : User Defined Encoder
Selected bitrate : 1024 kBit/s
Quality : High
Add ID3 tag : Yes
Command line compressor : C:\Program Files (x86)\Exact Audio Copy\Flac\flac.exe
Additional command line options : -6 -V -T "ARTIST=%artist%" -T "TITLE=%title%" -T "ALBUM=%albumtitle%" -T "DATE=%year%" -T "TRACKNUMBER=%tracknr%" -T "GENRE=%genre%" -T "COMMENT=%comment%" -T "BAND=%albuminterpret%" -T "COMPOSER=%composer%" %haslyrics%--tag-from-file=LYRICS="%lyricsfile%"%haslyrics% -T "DISCNUMBER=%cdnumber%" -T "TOTALDISCS=%totalcds%" -T "TOTALTRACKS=%numtracks%" %hascover%--picture="%coverfile%"%hascover% %source% -o %dest%


TOC of the extracted CD

Track | Start | Length | Start sector | End sector
---------------------------------------------------------
1 | 0:00.00 | 6:09.73 | 0 | 27747
2 | 6:09.73 | 4:49.56 | 27748 | 49478
3 | 10:59.54 | 7:00.45 | 49479 | 81023
4 | 18:00.24 | 4:18.03 | 81024 | 100376
5 | 22:18.27 | 4:11.06 | 100377 | 119207
6 | 26:29.33 | 4:44.27 | 119208 | 140534
7 | 31:13.60 | 7:17.09 | 140535 | 173318
8 | 38:30.69 | 4:57.01 | 173319 | 195594
9 | 43:27.70 | 4:48.27 | 195595 | 217221
10 | 48:16.22 | 5:49.49 | 217222 | 243445
11 | 54:05.71 | 5:40.10 | 243446 | 268955


Range status and errors

Selected range

Filename C:\mm\Alicia Keys\2013 - VH1 Storytellets [88883-72631-2]\Alicia Keys - VH1 Storytellers.wav

Peak level 100.0 %
Extraction speed 3.5 X
Range quality 100.0 %
Test CRC 6FB28B2D
Copy CRC 6FB28B2D
Copy OK

No errors occurred


AccurateRip summary

Track 1 accurately ripped (confidence 52) [15C044ED] (AR v2)
Track 2 accurately ripped (confidence 52) [D934B950] (AR v2)
Track 3 accurately ripped (confidence 52) [790C80DF] (AR v2)
Track 4 accurately ripped (confidence 52) [1192EBA1] (AR v2)
Track 5 accurately ripped (confidence 52) [C59E0C39] (AR v2)
Track 6 accurately ripped (confidence 53) [25D6462B] (AR v2)
Track 7 accurately ripped (confidence 53) [1D38E7C3] (AR v2)
Track 8 accurately ripped (confidence 53) [40EC0656] (AR v2)
Track 9 accurately ripped (confidence 52) [6F8526C1] (AR v2)
Track 10 accurately ripped (confidence 52) [3D4B25A2] (AR v2)
Track 11 accurately ripped (confidence 52) [413C4D24] (AR v2)

All tracks accurately ripped

End of status report

---- CUETools DB Plugin V2.1.6

[CTDB TOCID: fArQ3cE5SbeMSGUrWywJNVoV1Vk-] found
Submit result: fArQ3cE5SbeMSGUrWywJNVoV1Vk- has been confirmed
Track | CTDB Status
1 | (83/83) Accurately ripped
2 | (82/83) Accurately ripped
3 | (83/83) Accurately ripped
4 | (83/83) Accurately ripped
5 | (83/83) Accurately ripped
6 | (82/83) Accurately ripped
7 | (83/83) Accurately ripped
8 | (83/83) Accurately ripped
9 | (82/83) Accurately ripped
10 | (81/83) Accurately ripped
11 | (82/83) Accurately ripped
[свернуть]

Файл CUE

REM GENRE R&B
REM DATE 2013
REM DISCID 960E020B
REM COMMENT "ExactAudioCopy v1.1"
PERFORMER "Alicia Keys"
TITLE "VH1 Storytellers"
FILE "Alicia Keys - VH1 Storytellers.flac" WAVE
TRACK 01 AUDIO
TITLE "No One"
PERFORMER "Alicia Keys"
INDEX 01 00:00:00
TRACK 02 AUDIO
TITLE "Brand New Me"
PERFORMER "Alicia Keys"
INDEX 01 06:09:73
TRACK 03 AUDIO
TITLE "You Don't Know My Name"
PERFORMER "Alicia Keys"
INDEX 01 10:59:54
TRACK 04 AUDIO
TITLE "Empire State Of Mind, (Pt. II) Broken Down"
PERFORMER "Alicia Keys"
INDEX 01 18:00:24
TRACK 05 AUDIO
TITLE "Not Even The King"
PERFORMER "Alicia Keys"
INDEX 01 22:18:27
TRACK 06 AUDIO
TITLE "Fallin'"
PERFORMER "Alicia Keys"
INDEX 01 26:29:33
TRACK 07 AUDIO
TITLE "If I Ain't Got You"
PERFORMER "Alicia Keys"
INDEX 01 31:13:60
TRACK 08 AUDIO
TITLE "Girl On Fire"
PERFORMER "Alicia Keys"
INDEX 01 38:30:69
TRACK 09 AUDIO
TITLE "New Day"
PERFORMER "Alicia Keys"
INDEX 01 43:27:70
TRACK 10 AUDIO
TITLE "Try Sleeping With A Broken Heart"
PERFORMER "Alicia Keys"
INDEX 01 48:16:22
TRACK 11 AUDIO
TITLE "Un-Thinkable (I'm Ready)"
PERFORMER "Alicia Keys"
INDEX 01 54:05:71
[свернуть]

Лог проверки качества

AUDIOCHECKER v2.0 beta (build 457) - by Dester -
~~~~~~~~~~~~~~~~~~~~~~~~~~~~~~~~~~
-=== НЕ РЕДАКТИРУЙТЕ ЭТОТ ФАЙЛ! ===-

Путь: ...\2013 - VH1 Storytellets [88883-72631-2]

1 -=- Alicia Keys - VH1 Storytellers.flac -=- CDDA (100%)

156991700
[свернуть]

Спектр частот

[свернуть]

Скачать Alicia Keys - VH-1 Storytellers



password: sergych
[свернуть]
My opinion of release: 9/10
__________________
TAIFUN.Wings of Soul


Последний раз редактировалось sergych, 21.04.2017 в 22:15. Причина: перезаливка
Вверх
2 пользователя(ей) сказали cпасибо:
Chert (25.07.2016), Dmitri (29.06.2016)
Похожие темы
Тема Автор Раздел Ответов Последнее сообщение
Релиз The Black Keys - El Camino PUPOKIN Blues Rock 0 04.12.2011 10:13
Альбом Helloween - Keeper Of The Seven Keys Pt. 2 Afula Power Metal 0 16.04.2011 20:11
Релиз Alicia Keys - The Element Of Freedom PUPOKIN R&B 0 11.12.2009 10:54
Альбом Alicia Keys - As I Am PUPOKIN R&B 0 24.11.2008 11:53


Метки
2013 , alicia keys , pop , r&b , soul , vh-1 storytellers

Опции темы

Ваши права в разделе
Вы не можете создавать новые темы
Вы не можете отвечать в темах
Вы не можете прикреплять вложения
Вы не можете редактировать свои сообщения

Быстрый переход



Текущее время: 02:57. Часовой пояс GMT +3.
Powered by vBulletin® Version 3.8.10
Copyright ©2000 - 2017, vBulletin Solutions, Inc. Перевод: zCarot
© 2008 - 2017 Taifun With Song
Яндекс.Метрика