TAIFUN With Song
Classical В этом разделе релизы на классическую музыку.

А знаете ли Вы, что...
Зачем в Англии 19 века надевали чехлы на ножки роялей?
«В пуританской Англии 19 века из общественной жизни старательно изгонялось всё, что могло показаться хоть сколько-нибудь эротичным. Так, во время концертов на ножки роялей надевали чехлы, чтобы никто, глядя на эти голые ножки, не задумался о чём-нибудь непристойном.»
 
Опции темы

  #1
Старый 26.06.2016, 10:21
sergych
Координатор
Досье
 
Аватар для sergych
Релиз Lindsey Stirling - Shatter Me


2014 - Lindsey Stirling - Shatter Me




Исполнитель/Artist: Lindsey Stirling
Альбом/Album: Shatter Me
Год/Year: 2014
Жанр/Genre: Classical crossover, EDM, symphonic rock
Страна/Country: Германия
Рекорд-лейбл/Record label: Lindseystomp Music / Universal Music
Номер в каталоге/Catalogue #: 06025 3787068 4
Формат/Format: Free Lossless Audio Codec (*.flac)
Качество/Quality: Lossless
Тип рипа/RIP Type: image+.cue
Продолжительность/Length: 00:45:19
Источник/Source: Собственный рип
Размер/Size: 443 MB

Сканы в комплекте

Треклист

01. Beyond The Veil [0:04:14.69]
02. Mirror Haus [0:03:55.44]
03. V-Pop [0:03:45.62]
04. Shatter Me (feat. Lzzy Hale) [0:04:40.60]
05. Heist [0:03:26.64]
06. Roundtable Rival [0:03:23.21]
07. Night Vision [0:03:40.11]
08. Take Flight [0:04:24.20]
09. Ascendance [0:04:26.19]
10. We Are Giants (feat. Dia Frampton) [0:03:43.72]
11. Swag [0:03:10.14]
12. Master Of Tides [0:04:21.54]
[свернуть]

youtube.com

[свернуть]

Исполнители/Performers

Lindsey Stirling – violin, vocals
Dia Frampton – vocals (10)
Lzzy Hale – vocals (4)
[свернуть]

EAC лог

Exact Audio Copy V1.1 from 23. June 2015

EAC extraction logfile from 20. June 2016, 19:44

Lindsey Stirling / Shatter Me

Used drive : ATAPI iHAS124 D Adapter: 0 ID: 2

Read mode : Secure
Utilize accurate stream : Yes
Defeat audio cache : Yes
Make use of C2 pointers : No

Read offset correction : 6
Overread into Lead-In and Lead-Out : No
Fill up missing offset samples with silence : Yes
Delete leading and trailing silent blocks : No
Null samples used in CRC calculations : Yes
Used interface : Installed external ASPI interface

Used output format : User Defined Encoder
Selected bitrate : 1024 kBit/s
Quality : High
Add ID3 tag : Yes
Command line compressor : C:\Program Files (x86)\Exact Audio Copy\Flac\flac.exe
Additional command line options : -6 -V -T "ARTIST=%artist%" -T "TITLE=%title%" -T "ALBUM=%albumtitle%" -T "DATE=%year%" -T "TRACKNUMBER=%tracknr%" -T "GENRE=%genre%" -T "COMMENT=%comment%" -T "BAND=%albuminterpret%" -T "COMPOSER=%composer%" %haslyrics%--tag-from-file=LYRICS="%lyricsfile%"%haslyrics% -T "DISCNUMBER=%cdnumber%" -T "TOTALDISCS=%totalcds%" -T "TOTALTRACKS=%numtracks%" %hascover%--picture="%coverfile%"%hascover% %source% -o %dest%


TOC of the extracted CD

Track | Start | Length | Start sector | End sector
---------------------------------------------------------
1 | 0:00.00 | 4:14.69 | 0 | 19118
2 | 4:14.69 | 3:55.44 | 19119 | 36787
3 | 8:10.38 | 3:45.62 | 36788 | 53724
4 | 11:56.25 | 4:40.60 | 53725 | 74784
5 | 16:37.10 | 3:26.64 | 74785 | 90298
6 | 20:03.74 | 3:23.21 | 90299 | 105544
7 | 23:27.20 | 3:40.11 | 105545 | 122055
8 | 27:07.31 | 4:24.20 | 122056 | 141875
9 | 31:31.51 | 4:26.19 | 141876 | 161844
10 | 35:57.70 | 3:43.72 | 161845 | 178641
11 | 39:41.67 | 3:10.14 | 178642 | 192905
12 | 42:52.06 | 4:21.54 | 192906 | 212534


Range status and errors

Selected range

Filename C:\mm\Lindsey Stirling\2014 - Shatter Me [06025 3787068 4]\Lindsey Stirling - Shatter Me.wav

Peak level 100.0 %
Extraction speed 8.4 X
Range quality 100.0 %
Test CRC 6F7CB6C4
Copy CRC 6F7CB6C4
Copy OK

No errors occurred


AccurateRip summary

Track 1 cannot be verified as accurate (confidence 17) [08E6F98A], AccurateRip returned [26DF62B4] (AR v2)
Track 2 cannot be verified as accurate (confidence 17) [E3A8EEB6], AccurateRip returned [CAE668FB] (AR v2)
Track 3 cannot be verified as accurate (confidence 17) [9AE3BF90], AccurateRip returned [F5F19957] (AR v2)
Track 4 cannot be verified as accurate (confidence 17) [01C96038], AccurateRip returned [850CFD75] (AR v2)
Track 5 cannot be verified as accurate (confidence 17) [81DF57D8], AccurateRip returned [0368C835] (AR v2)
Track 6 cannot be verified as accurate (confidence 17) [AA180A2A], AccurateRip returned [9754D7DB] (AR v2)
Track 7 cannot be verified as accurate (confidence 17) [D5F26906], AccurateRip returned [15E81DA5] (AR v2)
Track 8 cannot be verified as accurate (confidence 15) [A35EC49B], AccurateRip returned [251C9D04] (AR v2)
Track 9 cannot be verified as accurate (confidence 17) [81F3DEE9], AccurateRip returned [EC5957F6] (AR v2)
Track 10 cannot be verified as accurate (confidence 17) [4738AFBE], AccurateRip returned [7606F363] (AR v2)
Track 11 cannot be verified as accurate (confidence 17) [62477327], AccurateRip returned [9DBA4BB8] (AR v2)
Track 12 cannot be verified as accurate (confidence 17) [0ADCABBD], AccurateRip returned [C77E18AD] (AR v2)

No tracks could be verified as accurate
You may have a different pressing from the one(s) in the database

End of status report

---- CUETools DB Plugin V2.1.6

[CTDB TOCID: 2EAHADghcJTWaZAjb1sEitYbFXI-] found
Submit result: 2EAHADghcJTWaZAjb1sEitYbFXI- has been confirmed
Track | CTDB Status
1 | (77/77) Accurately ripped
2 | (77/77) Accurately ripped
3 | (77/77) Accurately ripped
4 | (77/77) Accurately ripped
5 | (77/77) Accurately ripped
6 | (77/77) Accurately ripped
7 | (77/77) Accurately ripped
8 | (75/77) Accurately ripped
9 | (77/77) Accurately ripped
10 | (77/77) Accurately ripped
11 | (77/77) Accurately ripped
12 | (77/77) Accurately ripped
[свернуть]

Файл CUE

REM GENRE Dubstep
REM DATE 2014
REM DISCID B90B110C
REM COMMENT "ExactAudioCopy v1.1"
PERFORMER "Lindsey Stirling"
TITLE "Shatter Me"
FILE "Lindsey Stirling - Shatter Me.flac" WAVE
TRACK 01 AUDIO
TITLE "Beyond The Veil"
PERFORMER "Lindsey Stirling"
INDEX 01 00:00:00
TRACK 02 AUDIO
TITLE "Mirror Haus"
PERFORMER "Lindsey Stirling"
INDEX 01 04:14:69
TRACK 03 AUDIO
TITLE "V-Pop"
PERFORMER "Lindsey Stirling"
INDEX 01 08:10:38
TRACK 04 AUDIO
TITLE "Shatter Me (feat. Lzzy Hale)"
PERFORMER "Lindsey Stirling & Lzzy Hale"
INDEX 01 11:56:25
TRACK 05 AUDIO
TITLE "Heist"
PERFORMER "Lindsey Stirling"
INDEX 01 16:37:10
TRACK 06 AUDIO
TITLE "Roundtable Rival"
PERFORMER "Lindsey Stirling"
INDEX 01 20:03:74
TRACK 07 AUDIO
TITLE "Night Vision"
PERFORMER "Lindsey Stirling"
INDEX 01 23:27:20
TRACK 08 AUDIO
TITLE "Take Flight"
PERFORMER "Lindsey Stirling"
INDEX 01 27:07:31
TRACK 09 AUDIO
TITLE "Ascendance"
PERFORMER "Lindsey Stirling"
INDEX 01 31:31:51
TRACK 10 AUDIO
TITLE "We Are Giants (feat. Dia Frampton)"
PERFORMER "Lindsey Stirling & Dia Frampton"
INDEX 01 35:57:70
TRACK 11 AUDIO
TITLE "Swag"
PERFORMER "Lindsey Stirling"
INDEX 01 39:41:67
TRACK 12 AUDIO
TITLE "Master Of Tides"
PERFORMER "Lindsey Stirling"
INDEX 01 42:52:06
[свернуть]

Лог проверки качества

AUDIOCHECKER v2.0 beta (build 457) - by Dester -
~~~~~~~~~~~~~~~~~~~~~~~~~~~~~~~~~~
-=== НЕ РЕДАКТИРУЙТЕ ЭТОТ ФАЙЛ! ===-

Путь: ...\2014 - Shatter Me [06025 3787068 4]

1 -=- Lindsey Stirling - Shatter Me.flac -=- MPEG (95%)

240572052
[свернуть]

Спектр частот

[свернуть]

Скачать Lindsey Stirling - Shatter Me



password: sergych
[свернуть]
My opinion of release: 9/10
__________________
TAIFUN.Wings of Soul

Вверх
2 пользователя(ей) сказали cпасибо:
Dmitri (28.06.2016), swint68 (27.06.2016)
  #2
Старый 27.06.2016, 18:47
swint68
Меломан
Досье
 
Аватар для swint68
По умолчанию Re: Lindsey Stirling - Shatter Me

Бесподобная девчонка!

Вверх
Пользователь сказал cпасибо:
sergych (28.06.2016)
Похожие темы
Тема Автор Раздел Ответов Последнее сообщение
Альбом Lindsey Buckingham - Seeds We Sow sergych Pop Rock 0 04.04.2016 21:35
Релиз Lindsey Ray - Goodbye From California PUPOKIN Зарубежная Поп-Музыка 0 15.08.2010 14:28


Метки
2014 , classical crossover , edm , lindsey stirling , shatter me , symphonic rock

Опции темы

Ваши права в разделе
Вы не можете создавать новые темы
Вы не можете отвечать в темах
Вы не можете прикреплять вложения
Вы не можете редактировать свои сообщения

Быстрый переход



Текущее время: 20:16. Часовой пояс GMT +3.
Powered by vBulletin® Version 3.8.7
Copyright ©2000 - 2017, vBulletin Solutions, Inc. Перевод: zCarot
© 2008 - 2017 Taifun With Song
Яндекс.Метрика