TAIFUN With Song
R&B Ссылки на музыку в этом стиле

А знаете ли Вы, что...
Почему песня «Nothing Else Matters» начинается перебором на открытых струнах?
«В начале песни «Nothing Else Matters» группы Metallica слышен перебор на открытых первой, второй, третьей и шестой струнах. Такое композиционное решение появилось благодаря тому, что её автор Джеймс Хэтфилд, когда начинал сочинять песню, одной рукой держал телефонную трубку и разговаривал со своей девушкой.»
 
Опции темы

  #1
Старый 04.05.2016, 23:32
sergych
Координатор
Досье
 
Аватар для sergych
Релиз Seal - Soul 2


2011 - Seal - Soul 2




Исполнитель/Artist: Seal
Альбом/Album: Soul 2
Год/Year: 2011
Жанр/Genre: R'n'B, Soul, Pop
Страна/Country: Австралия
Рекорд-лейбл/Record label: Reprise Records / Warner Music
Номер в каталоге/Catalogue #: 9362495471
Формат/Format: Free Lossless Audio Codec (*.flac)
Качество/Quality: Lossless
Тип рипа/RIP Type: image+.cue
Продолжительность/Length: 00:43:52
Источник/Source: Собственный рип
Размер/Size: 354.6 MB

Сканы в комплекте

Треклист

01. Wishing On A Star [0:04:13.58]
02. Love T.K.O. [0:05:38.21]
03. Ooh Baby Baby [0:03:02.35]
04. Let's Stay Together [0:03:42.20]
05. What's Going On [0:04:27.09]
06. Love Don't Live Here Anymore [0:04:11.24]
07. Back Stabbers [0:03:36.16]
08. I'll Be Around [0:03:15.73]
09. Love Won't Let Me Wait [0:04:24.22]
10. Lean On Me [0:03:26.56]
11. Oh Girl [0:03:53.30]
[свернуть]

youtube.com

[свернуть]

EAC лог

Exact Audio Copy V1.1 from 23. June 2015

EAC extraction logfile from 5. May 2016, 0:48

Seal / Soul 2

Used drive : ATAPI iHAS124 D Adapter: 0 ID: 2

Read mode : Secure
Utilize accurate stream : Yes
Defeat audio cache : Yes
Make use of C2 pointers : No

Read offset correction : 6
Overread into Lead-In and Lead-Out : No
Fill up missing offset samples with silence : Yes
Delete leading and trailing silent blocks : No
Null samples used in CRC calculations : Yes
Used interface : Installed external ASPI interface

Used output format : User Defined Encoder
Selected bitrate : 1024 kBit/s
Quality : High
Add ID3 tag : Yes
Command line compressor : C:\Program Files (x86)\Exact Audio Copy\Flac\flac.exe
Additional command line options : -6 -V -T "ARTIST=%artist%" -T "TITLE=%title%" -T "ALBUM=%albumtitle%" -T "DATE=%year%" -T "TRACKNUMBER=%tracknr%" -T "GENRE=%genre%" -T "COMMENT=%comment%" -T "BAND=%albuminterpret%" -T "COMPOSER=%composer%" %haslyrics%--tag-from-file=LYRICS="%lyricsfile%"%haslyrics% -T "DISCNUMBER=%cdnumber%" -T "TOTALDISCS=%totalcds%" -T "TOTALTRACKS=%numtracks%" %hascover%--picture="%coverfile%"%hascover% %source% -o %dest%


TOC of the extracted CD

Track | Start | Length | Start sector | End sector
---------------------------------------------------------
1 | 0:00.00 | 4:13.58 | 0 | 19032
2 | 4:13.58 | 5:38.21 | 19033 | 44403
3 | 9:52.04 | 3:02.35 | 44404 | 58088
4 | 12:54.39 | 3:42.20 | 58089 | 74758
5 | 16:36.59 | 4:27.09 | 74759 | 94792
6 | 21:03.68 | 4:11.24 | 94793 | 113641
7 | 25:15.17 | 3:36.16 | 113642 | 129857
8 | 28:51.33 | 3:15.73 | 129858 | 144555
9 | 32:07.31 | 4:24.22 | 144556 | 164377
10 | 36:31.53 | 3:26.56 | 164378 | 179883
11 | 39:58.34 | 3:53.30 | 179884 | 197388


Range status and errors

Selected range

Filename C:\mm\Seal\2011 - Soul 2 [9362495471]\Seal - Soul 2.wav

Peak level 99.8 %
Extraction speed 8.4 X
Range quality 100.0 %
Test CRC 5580D8A9
Copy CRC 5580D8A9
Copy OK

No errors occurred


AccurateRip summary

Track 1 accurately ripped (confidence 89) [358358B4] (AR v2)
Track 2 accurately ripped (confidence 91) [A71B4F1B] (AR v2)
Track 3 accurately ripped (confidence 89) [2D3CC022] (AR v2)
Track 4 accurately ripped (confidence 90) [E7701559] (AR v2)
Track 5 accurately ripped (confidence 91) [B9321F50] (AR v2)
Track 6 accurately ripped (confidence 91) [A446EF2D] (AR v2)
Track 7 accurately ripped (confidence 90) [4235E727] (AR v2)
Track 8 accurately ripped (confidence 90) [A8CB5C84] (AR v2)
Track 9 accurately ripped (confidence 90) [AA9013C5] (AR v2)
Track 10 accurately ripped (confidence 91) [63C6CAA3] (AR v2)
Track 11 accurately ripped (confidence 90) [CF1E8F9C] (AR v2)

All tracks accurately ripped

End of status report
[свернуть]

Файл CUE

REM GENRE Soul
REM DATE 2011
REM DISCID A20A470B
REM COMMENT "ExactAudioCopy v1.1"
PERFORMER "Seal"
TITLE "Soul 2"
FILE "Seal - Soul 2.flac" WAVE
TRACK 01 AUDIO
TITLE "Wishing On A Star"
PERFORMER "Seal"
INDEX 01 00:00:00
TRACK 02 AUDIO
TITLE "Love T.K.O."
PERFORMER "Seal"
INDEX 00 04:13:40
INDEX 01 04:13:58
TRACK 03 AUDIO
TITLE "Ooh Baby Baby"
PERFORMER "Seal"
INDEX 00 09:51:48
INDEX 01 09:52:04
TRACK 04 AUDIO
TITLE "Let's Stay Together"
PERFORMER "Seal"
INDEX 00 12:53:51
INDEX 01 12:54:39
TRACK 05 AUDIO
TITLE "What's Going On"
PERFORMER "Seal"
INDEX 00 16:36:30
INDEX 01 16:36:59
TRACK 06 AUDIO
TITLE "Love Don't Live Here Anymore"
PERFORMER "Seal"
INDEX 00 21:03:59
INDEX 01 21:03:68
TRACK 07 AUDIO
TITLE "Back Stabbers"
PERFORMER "Seal"
INDEX 00 25:14:49
INDEX 01 25:15:17
TRACK 08 AUDIO
TITLE "I'll Be Around"
PERFORMER "Seal"
INDEX 01 28:51:33
TRACK 09 AUDIO
TITLE "Love Won't Let Me Wait"
PERFORMER "Seal"
INDEX 00 32:07:12
INDEX 01 32:07:31
TRACK 10 AUDIO
TITLE "Lean On Me"
PERFORMER "Seal"
INDEX 01 36:31:53
TRACK 11 AUDIO
TITLE "Oh Girl"
PERFORMER "Seal"
INDEX 01 39:58:34
[свернуть]

Лог проверки качества

AUDIOCHECKER v2.0 beta (build 457) - by Dester - [Ссылки могут видеть только зарегистрированные пользователи. ]
~~~~~~~~~~~~~~~~~~~~~~~~~~~~~~~~~~
-=== НЕ РЕДАКТИРУЙТЕ ЭТОТ ФАЙЛ! ===-

Путь: ...\2011 - Soul 2 [9362495471]

1 -=- Seal - Soul 2.flac -=- CDDA (100%)

98172820
[свернуть]

Спектр частот

[свернуть]

Скачать Seal - Soul 2

[Ссылки могут видеть только зарегистрированные пользователи. ]

password: sergych
[свернуть]
My opinion of release: 10/10
__________________
TAIFUN.Wings of Soul

Вверх
Похожие темы
Тема Автор Раздел Ответов Последнее сообщение
Альбом Seal - Human Being sergych Rock 0 15.01.2016 00:49
Релиз Seal - 6: Commitment PUPOKIN R&B 0 18.09.2010 09:53
Релиз Lil Kong & Kathy Soul - Baby Lone Soul PUPOKIN Русский, украинский 0 09.10.2009 11:00
Seal sergych R&B [FAQ] 0 13.06.2008 19:12


Метки
2011 , pop , r'n'b , seal , soul , soul 2

Опции темы

Ваши права в разделе
Вы не можете создавать новые темы
Вы не можете отвечать в темах
Вы не можете прикреплять вложения
Вы не можете редактировать свои сообщения

Быстрый переход



Текущее время: 01:52. Часовой пояс GMT +3.
Powered by vBulletin® Version 3.8.7
Copyright ©2000 - 2017, vBulletin Solutions, Inc. Перевод: zCarot
© 2008 - 2017 Taifun With Song
Яндекс.Метрика