TAIFUN With Song
Classical В этом разделе релизы на классическую музыку.

А знаете ли Вы, что...
Почему обложку музыкального сборника
«В 2005 году Sony BMG выпустила музыкальный сборник ‘Electric 80s’. В оформлении обложки диска был использован большой штрих-код. Некоторые супермаркеты потерпели убытки после того, как их продавцы считывали сканерами именно этот штрих-код вместо обычного, располагающегося на обратной стороне диска. Сканеры распознавали по коду другой товар, который стоил дешевле. Во второй партии дисков обложка была изменена.»
 
Опции темы

  #1
Старый 16.04.2016, 13:40
sergych
Координатор
Досье
 
Аватар для sergych
Релиз Andrea Bocelli - Sentimento


2002 - Andrea Bocelli - Sentimento




Исполнитель/Artist: Andrea Bocelli
Альбом/Album: Sentimento
Год/Year: 2002
Жанр/Genre: Classical, Opera, Vocals
Страна/Country: Соединённые Штаты
Рекорд-лейбл/Record label: Sugar S.r.l.
Номер в каталоге/Catalogue #: 289 470 400-2
Формат/Format: Free Lossless Audio Codec (*.flac)
Качество/Quality: Lossless
Тип рипа/RIP Type: image+.cue
Продолжительность/Length: 01:00:14
Источник/Source: Собственный рип
Размер/Size: 474 MB

Сканы в комплекте

Треклист

01. En Aranjuez Con Tu Amor (Rodrigo) [0:03:29.05]
02. Mattinata (Leoncavallo) [0:02:34.00]
03. Barcarolle (Offenbach) [0:02:39.22]
04. L'alba Separa Dalla Luce L'ombra (Tosti) [0:02:48.10]
05. Songo D'amore (Lizst) [0:05:23.25]
06. La Serenata (Tosti) [0:03:24.30]
07. L'ultima Canzone (Tosti) [0:04:22.15]
08. Malia (Tosti) [0:03:34.43]
09. La Danza (Rossini) [0:03:08.55]
10. Ideale (Tosti) [0:03:15.65]
11. Sogno (Tosti) [0:03:07.72]
12. Plaisir D'amour (Martini) [0:03:56.38]
13. Musica Proibita (Gastaldon) [0:03:40.70]
14. Occhi Di Fata (Denza) [0:03:30.10]
15. A Vucchella (Tosti) [0:02:47.57]
16. Vorrei Morire! (Tosti) [0:05:03.63]
17. Vaghissima Sembianza (Donaudy) [0:03:27.35]
[свернуть]

youtube.com

[свернуть]

EAC лог

Exact Audio Copy V1.1 from 23. June 2015

EAC extraction logfile from 28. February 2016, 9:37

Andrea Bocelli / Sentimento

Used drive : ATAPI iHAS124 D Adapter: 0 ID: 2

Read mode : Secure
Utilize accurate stream : Yes
Defeat audio cache : Yes
Make use of C2 pointers : No

Read offset correction : 6
Overread into Lead-In and Lead-Out : No
Fill up missing offset samples with silence : Yes
Delete leading and trailing silent blocks : No
Null samples used in CRC calculations : Yes
Used interface : Installed external ASPI interface

Used output format : User Defined Encoder
Selected bitrate : 1024 kBit/s
Quality : High
Add ID3 tag : Yes
Command line compressor : C:\Program Files (x86)\Exact Audio Copy\Flac\flac.exe
Additional command line options : -6 -V -T "ARTIST=%artist%" -T "TITLE=%title%" -T "ALBUM=%albumtitle%" -T "DATE=%year%" -T "TRACKNUMBER=%tracknr%" -T "GENRE=%genre%" -T "COMMENT=%comment%" -T "BAND=%albuminterpret%" -T "COMPOSER=%composer%" %haslyrics%--tag-from-file=LYRICS="%lyricsfile%"%haslyrics% -T "DISCNUMBER=%cdnumber%" -T "TOTALDISCS=%totalcds%" -T "TOTALTRACKS=%numtracks%" %hascover%--picture="%coverfile%"%hascover% %source% -o %dest%


TOC of the extracted CD

Track | Start | Length | Start sector | End sector
---------------------------------------------------------
1 | 0:00.00 | 3:29.05 | 0 | 15679
2 | 3:29.05 | 2:34.00 | 15680 | 27229
3 | 6:03.05 | 2:39.22 | 27230 | 39176
4 | 8:42.27 | 2:48.10 | 39177 | 51786
5 | 11:30.37 | 5:23.25 | 51787 | 76036
6 | 16:53.62 | 3:24.30 | 76037 | 91366
7 | 20:18.17 | 4:22.15 | 91367 | 111031
8 | 24:40.32 | 3:34.43 | 111032 | 127124
9 | 28:15.00 | 3:08.55 | 127125 | 141279
10 | 31:23.55 | 3:15.65 | 141280 | 155969
11 | 34:39.45 | 3:07.72 | 155970 | 170066
12 | 37:47.42 | 3:56.38 | 170067 | 187804
13 | 41:44.05 | 3:40.70 | 187805 | 204374
14 | 45:25.00 | 3:30.10 | 204375 | 220134
15 | 48:55.10 | 2:47.57 | 220135 | 232716
16 | 51:42.67 | 5:03.63 | 232717 | 255504
17 | 56:46.55 | 3:27.35 | 255505 | 271064
18 | 62:46.15 | 9:00.49 | 282465 | 323013


Range status and errors

Selected range

Filename C:\mm\Andea Bocelli\2002 - Sentimento [289 470 400-2]\Andrea Bocelli - Sentimento.wav

Peak level 100.0 %
Extraction speed 9.7 X
Range quality 100.0 %
Test CRC F20EDAE7
Copy CRC F20EDAE7
Copy OK

No errors occurred


AccurateRip summary

Track 1 accurately ripped (confidence 36) [59A5B1B5] (AR v2)
Track 2 accurately ripped (confidence 36) [AEC5F2F6] (AR v2)
Track 3 accurately ripped (confidence 36) [12CB0678] (AR v2)
Track 4 accurately ripped (confidence 36) [367D6E19] (AR v2)
Track 5 accurately ripped (confidence 35) [B115306F] (AR v2)
Track 6 accurately ripped (confidence 35) [7F12B468] (AR v2)
Track 7 accurately ripped (confidence 36) [32FAFB6B] (AR v2)
Track 8 accurately ripped (confidence 36) [CFA16703] (AR v2)
Track 9 accurately ripped (confidence 35) [803FA47A] (AR v2)
Track 10 accurately ripped (confidence 36) [A28F58D4] (AR v2)
Track 11 accurately ripped (confidence 36) [181BB40A] (AR v2)
Track 12 accurately ripped (confidence 34) [CBD89FAA] (AR v2)
Track 13 accurately ripped (confidence 34) [937BEF72] (AR v2)
Track 14 accurately ripped (confidence 36) [3B043752] (AR v2)
Track 15 accurately ripped (confidence 36) [4A013A78] (AR v2)
Track 16 accurately ripped (confidence 34) [9685C724] (AR v2)
Track 17 accurately ripped (confidence 34) [47A832DD] (AR v2)

All tracks accurately ripped

End of status report
[свернуть]

Файл CUE

REM GENRE Classical
REM DATE 2002
REM DISCID F910D212
REM COMMENT "ExactAudioCopy v1.1"
PERFORMER "Andrea Bocelli"
TITLE "Sentimento"
FILE "Andrea Bocelli - Sentimento.flac" WAVE
TRACK 01 AUDIO
TITLE "En Aranjuez Con Tu Amor (Rodrigo)"
PERFORMER "Andrea Bocelli"
INDEX 01 00:00:00
TRACK 02 AUDIO
TITLE "Mattinata (Leoncavallo)"
PERFORMER "Andrea Bocelli"
INDEX 00 03:25:67
INDEX 01 03:29:05
TRACK 03 AUDIO
TITLE "Barcarolle (Offenbach)"
PERFORMER "Andrea Bocelli"
INDEX 00 05:58:50
INDEX 01 06:03:05
TRACK 04 AUDIO
TITLE "L'alba Separa Dalla Luce L'ombra (Tosti)"
PERFORMER "Andrea Bocelli"
INDEX 00 08:38:72
INDEX 01 08:42:27
TRACK 05 AUDIO
TITLE "Songo D'amore (Lizst)"
PERFORMER "Andrea Bocelli"
INDEX 00 11:27:40
INDEX 01 11:30:37
TRACK 06 AUDIO
TITLE "La Serenata (Tosti)"
PERFORMER "Andrea Bocelli"
INDEX 00 16:49:22
INDEX 01 16:53:62
TRACK 07 AUDIO
TITLE "L'ultima Canzone (Tosti)"
PERFORMER "Andrea Bocelli"
INDEX 00 20:14:65
INDEX 01 20:18:17
TRACK 08 AUDIO
TITLE "Malia (Tosti)"
PERFORMER "Andrea Bocelli"
INDEX 00 24:37:10
INDEX 01 24:40:32
TRACK 09 AUDIO
TITLE "La Danza (Rossini)"
PERFORMER "Andrea Bocelli"
INDEX 00 28:11:55
INDEX 01 28:15:00
TRACK 10 AUDIO
TITLE "Ideale (Tosti)"
PERFORMER "Andrea Bocelli"
INDEX 00 31:18:42
INDEX 01 31:23:55
TRACK 11 AUDIO
TITLE "Sogno (Tosti)"
PERFORMER "Andrea Bocelli"
INDEX 00 34:35:47
INDEX 01 34:39:45
TRACK 12 AUDIO
TITLE "Plaisir D'amour (Martini)"
PERFORMER "Andrea Bocelli"
INDEX 00 37:42:40
INDEX 01 37:47:42
TRACK 13 AUDIO
TITLE "Musica Proibita (Gastaldon)"
PERFORMER "Andrea Bocelli"
INDEX 00 41:39:37
INDEX 01 41:44:05
TRACK 14 AUDIO
TITLE "Occhi Di Fata (Denza)"
PERFORMER "Andrea Bocelli"
INDEX 00 45:21:22
INDEX 01 45:25:00
TRACK 15 AUDIO
TITLE "A Vucchella (Tosti)"
PERFORMER "Andrea Bocelli"
INDEX 00 48:51:07
INDEX 01 48:55:10
TRACK 16 AUDIO
TITLE "Vorrei Morire! (Tosti)"
PERFORMER "Andrea Bocelli"
INDEX 00 51:37:65
INDEX 01 51:42:67
TRACK 17 AUDIO
TITLE "Vaghissima Sembianza (Donaudy)"
PERFORMER "Andrea Bocelli"
INDEX 00 56:41:42
INDEX 01 56:46:55
[свернуть]

Лог проверки качества

AUDIOCHECKER v2.0 beta (build 457) - by Dester -
~~~~~~~~~~~~~~~~~~~~~~~~~~~~~~~~~~
-=== НЕ РЕДАКТИРУЙТЕ ЭТОТ ФАЙЛ! ===-

Путь: ...\2002 - Sentimento [289 470 400-2]

1 -=- Andrea Bocelli - Sentimento.flac -=- CDDA (100%)

144368644
[свернуть]

Спектр частот

[свернуть]

Скачать Andrea Bocelli - Sentimento



password: sergych
[свернуть]
My opinion of release: 10/10

Release info RInfo

Альбом, записанный осенью 2002 года в сопровожении London Symphony Orchestra (дирижёр Lorin Maazel), получил в 2003 году 2 награды Classical BRIT Awards, - "Best selling classical album" и "Album of the year".
__________________
TAIFUN.Wings of Soul


Последний раз редактировалось sergych, 14.04.2017 в 09:10. Причина: перезалил, задолбали личеры
Вверх
Похожие темы
Тема Автор Раздел Ответов Последнее сообщение
Альбом Andrea Bocelli - Passione sergych Зарубежная Поп-Музыка 0 13.04.2016 22:21
Альбом Andrea Bocelli - Incanto sergych Classical 0 04.08.2014 21:03
Сборник Andrea Bocelli - The Best of Andrea Bocelli: Vivere sergych Зарубежная Поп-Музыка 0 31.07.2014 16:53
Альбом Andrea Bocelli - Andrea sergych Зарубежная Поп-Музыка 0 30.07.2014 20:32
Альбом Andrea Bocelli - Incanto PUPOKIN Classical 0 01.11.2008 13:49


Метки
2002 , andrea bocelli , classical , opera , sentimento , vocals

Опции темы

Ваши права в разделе
Вы не можете создавать новые темы
Вы не можете отвечать в темах
Вы не можете прикреплять вложения
Вы не можете редактировать свои сообщения

Быстрый переход



Текущее время: 20:16. Часовой пояс GMT +3.
Powered by vBulletin® Version 3.8.7
Copyright ©2000 - 2017, vBulletin Solutions, Inc. Перевод: zCarot
© 2008 - 2017 Taifun With Song
Яндекс.Метрика