TAIFUN With Song
Навигация
Вернуться   TAIFUN With Song > Music (обменник) > Другие направления музыки > Classical
Расширенный поиск
Classical В этом разделе релизы на классическую музыку.

А знаете ли Вы, что...
Какой композитор писал музыку, будучи глухим?
«На момент написания своей знаменитой девятой симфонии Бетховен был абсолютно глух.»
 
Опции темы

  #1
Старый 10.04.2016, 21:59
sergych
Координатор
Досье
 
Аватар для sergych
Релиз Andrea Bocelli - Concerto: One Night In Central Park


2011 - Andrea Bocelli - Concerto: One Night In Central Park




Исполнитель/Artist: Andrea Bocelli
Альбом/Album: Concerto: One Night In Central Park
Год/Year: 2011
Жанр/Genre: Classical, Opera, Vocals
Страна/Country: Италия
Рекорд-лейбл/Record label: Sugar S.r.l.
Номер в каталоге/Catalogue #: B0015977-02
Формат/Format: Free Lossless Audio Codec (*.flac)
Качество/Quality: Lossless
Тип рипа/RIP Type: image+.cue
Продолжительность/Length: 01:08:45
Источник/Source: Собственный рип
Размер/Size: 470.3 MB

Сканы в комплекте

Треклист

01. La Donna E' Mobile [0:02:15.61]
02. Di Quella Pira [0:02:16.22]
03. Ave Maria [Central Park Version] [0:04:46.10]
04. Vicino A Te S'Acqueta [duet With Ana Maria Martinez] [0:08:15.36]
05. Au Fond Du Temple Saint [duet With Bryn Terfel] [0:05:56.66]
06. O Soave Fanciulla [duet With Pretty Yende] [0:04:06.17]
07. Libiamo Ne' Lieti Calici [with P. Yende, B. Terfel, A. M. Martinez] [0:03:11.63]
08. Amazing Grace [0:04:22.73]
09. New York, New York [duet With Tony Bennett] [0:03:28.26]
10. The Prayer [duet With Celine Dion, David Foster On Piano] [0:04:30.47]
11. More (Ti Guardero' Nel Cuore) [with Chris Botti On Trumpet, David Foster On Piano] [0:03:48.57]
12. Your Love (Once Upon A Time In The West) [0:03:48.30]
13. Nel Blu, Dipinto Di Blu (Volare) [with David Foster On Piano] [0:03:24.15]
14. Funiculi' Funicula' [with Andrea Griminelli On Flute] [0:02:36.14]
15. En Aranjuez Con Tu Amor [with Nicola Benedetti On Violin] [0:03:34.48]
16. Time To Say Goodbye (Con Te Partiro') [duet With Ana Maria Martinez] [0:04:14.45]
17. Nessun Dorma [0:04:07.57]
[свернуть]

youtube.com

[свернуть]

EAC лог

Exact Audio Copy V1.1 from 23. June 2015

EAC extraction logfile from 3. April 2016, 1:59

Andrea Bocelli / Concerto. One Night In Central Park

Used drive : ATAPI iHAS124 D Adapter: 0 ID: 2

Read mode : Secure
Utilize accurate stream : Yes
Defeat audio cache : Yes
Make use of C2 pointers : No

Read offset correction : 6
Overread into Lead-In and Lead-Out : No
Fill up missing offset samples with silence : Yes
Delete leading and trailing silent blocks : No
Null samples used in CRC calculations : Yes
Used interface : Installed external ASPI interface

Used output format : User Defined Encoder
Selected bitrate : 1024 kBit/s
Quality : High
Add ID3 tag : Yes
Command line compressor : C:\Program Files (x86)\Exact Audio Copy\Flac\flac.exe
Additional command line options : -6 -V -T "ARTIST=%artist%" -T "TITLE=%title%" -T "ALBUM=%albumtitle%" -T "DATE=%year%" -T "TRACKNUMBER=%tracknr%" -T "GENRE=%genre%" -T "COMMENT=%comment%" -T "BAND=%albuminterpret%" -T "COMPOSER=%composer%" %haslyrics%--tag-from-file=LYRICS="%lyricsfile%"%haslyrics% -T "DISCNUMBER=%cdnumber%" -T "TOTALDISCS=%totalcds%" -T "TOTALTRACKS=%numtracks%" %hascover%--picture="%coverfile%"%hascover% %source% -o %dest%


TOC of the extracted CD

Track | Start | Length | Start sector | End sector
---------------------------------------------------------
1 | 0:00.00 | 2:15.61 | 0 | 10185
2 | 2:15.61 | 2:16.22 | 10186 | 20407
3 | 4:32.08 | 4:46.10 | 20408 | 41867
4 | 9:18.18 | 8:15.36 | 41868 | 79028
5 | 17:33.54 | 5:56.66 | 79029 | 105794
6 | 23:30.45 | 4:06.17 | 105795 | 124261
7 | 27:36.62 | 3:11.63 | 124262 | 138649
8 | 30:48.50 | 4:22.73 | 138650 | 158372
9 | 35:11.48 | 3:28.26 | 158373 | 173998
10 | 38:39.74 | 4:30.47 | 173999 | 194295
11 | 43:10.46 | 3:48.57 | 194296 | 211452
12 | 46:59.28 | 3:48.30 | 211453 | 228582
13 | 50:47.58 | 3:24.15 | 228583 | 243897
14 | 54:11.73 | 2:36.14 | 243898 | 255611
15 | 56:48.12 | 3:34.48 | 255612 | 271709
16 | 60:22.60 | 4:14.45 | 271710 | 290804
17 | 64:37.30 | 4:07.57 | 290805 | 309386


Range status and errors

Selected range

Filename C:\mm\Andea Bocelli\2011 - Concerto. One Night In Central Park [B0015977-02]\Andrea Bocelli - Concerto. One Night In Central Park.wav

Peak level 100.0 %
Extraction speed 10.1 X
Range quality 100.0 %
Test CRC 2E90321E
Copy CRC 2E90321E
Copy OK

No errors occurred


AccurateRip summary

Track 1 accurately ripped (confidence 96) [555BA6A3] (AR v2)
Track 2 accurately ripped (confidence 96) [0B1BEF05] (AR v2)
Track 3 accurately ripped (confidence 97) [49BBF746] (AR v2)
Track 4 accurately ripped (confidence 95) [CEBF9D57] (AR v2)
Track 5 accurately ripped (confidence 96) [9C3C7551] (AR v2)
Track 6 accurately ripped (confidence 97) [3340066D] (AR v2)
Track 7 accurately ripped (confidence 95) [0EC76953] (AR v2)
Track 8 accurately ripped (confidence 96) [E324D817] (AR v2)
Track 9 accurately ripped (confidence 96) [3BA8EA53] (AR v2)
Track 10 accurately ripped (confidence 96) [39A5B017] (AR v2)
Track 11 accurately ripped (confidence 95) [EFA5EC16] (AR v2)
Track 12 accurately ripped (confidence 95) [00DBEBE4] (AR v2)
Track 13 accurately ripped (confidence 95) [AF7EC59C] (AR v2)
Track 14 accurately ripped (confidence 97) [4D963B90] (AR v2)
Track 15 accurately ripped (confidence 96) [A24BC600] (AR v2)
Track 16 accurately ripped (confidence 94) [4D89FB9F] (AR v2)
Track 17 accurately ripped (confidence 92) [0582D5A0] (AR v2)

All tracks accurately ripped

End of status report
[свернуть]

Файл CUE

REM GENRE Vocal
REM DATE 2011
REM DISCID D7101D11
REM COMMENT "ExactAudioCopy v1.1"
PERFORMER "Andrea Bocelli"
TITLE "Concerto. One Night In Central Park"
FILE "Andrea Bocelli - Concerto. One Night In Central Park.flac" WAVE
TRACK 01 AUDIO
TITLE "La Donna E' Mobile"
PERFORMER "Andrea Bocelli"
INDEX 01 00:00:00
TRACK 02 AUDIO
TITLE "Di Quella Pira"
PERFORMER "Andrea Bocelli"
INDEX 00 02:15:12
INDEX 01 02:15:61
TRACK 03 AUDIO
TITLE "Ave Maria [Central Park Version]"
PERFORMER "Andrea Bocelli"
INDEX 00 04:31:31
INDEX 01 04:32:08
TRACK 04 AUDIO
TITLE "Vicino A Te S'Acqueta [duet With Ana Maria Martinez]"
PERFORMER "Andrea Bocelli"
INDEX 00 09:17:03
INDEX 01 09:18:18
TRACK 05 AUDIO
TITLE "Au Fond Du Temple Saint [duet With Bryn Terfel]"
PERFORMER "Andrea Bocelli"
INDEX 00 17:32:53
INDEX 01 17:33:54
TRACK 06 AUDIO
TITLE "O Soave Fanciulla [duet With Pretty Yende]"
PERFORMER "Andrea Bocelli"
INDEX 00 23:29:38
INDEX 01 23:30:45
TRACK 07 AUDIO
TITLE "Libiamo Ne' Lieti Calici [with P. Yende, B. Terfel, A. M. Martinez]"
PERFORMER "Andrea Bocelli"
INDEX 00 27:34:71
INDEX 01 27:36:62
TRACK 08 AUDIO
TITLE "Amazing Grace"
PERFORMER "Andrea Bocelli"
INDEX 00 30:45:27
INDEX 01 30:48:50
TRACK 09 AUDIO
TITLE "New York, New York [duet With Tony Bennett]"
PERFORMER "Andrea Bocelli"
INDEX 00 35:09:23
INDEX 01 35:11:48
TRACK 10 AUDIO
TITLE "The Prayer [duet With Celine Dion, David Foster On Piano]"
PERFORMER "Andrea Bocelli"
INDEX 00 38:37:51
INDEX 01 38:39:74
TRACK 11 AUDIO
TITLE "More (Ti Guardero' Nel Cuore) [with Chris Botti On Trumpet, David Foster On P..."
PERFORMER "Andrea Bocelli"
INDEX 00 43:09:10
INDEX 01 43:10:46
TRACK 12 AUDIO
TITLE "Your Love (Once Upon A Time In The West)"
PERFORMER "Andrea Bocelli"
INDEX 00 46:57:52
INDEX 01 46:59:28
TRACK 13 AUDIO
TITLE "Nel Blu, Dipinto Di Blu (Volare) [with David Foster On Piano]"
PERFORMER "Andrea Bocelli"
INDEX 00 50:45:43
INDEX 01 50:47:58
TRACK 14 AUDIO
TITLE "Funiculi' Funicula' [with Andrea Griminelli On Flute]"
PERFORMER "Andrea Bocelli"
INDEX 00 54:10:17
INDEX 01 54:11:73
TRACK 15 AUDIO
TITLE "En Aranjuez Con Tu Amor [with Nicola Benedetti On Violin]"
PERFORMER "Andrea Bocelli"
INDEX 00 56:47:03
INDEX 01 56:48:12
TRACK 16 AUDIO
TITLE "Time To Say Goodbye (Con Te Partiro') [duet With Ana Maria Martinez]"
PERFORMER "Andrea Bocelli"
INDEX 00 60:21:23
INDEX 01 60:22:60
TRACK 17 AUDIO
TITLE "Nessun Dorma"
PERFORMER "Andrea Bocelli"
INDEX 00 64:36:06
INDEX 01 64:37:30
[свернуть]

Лог проверки качества

AUDIOCHECKER v2.0 beta (build 457) - by Dester -
~~~~~~~~~~~~~~~~~~~~~~~~~~~~~~~~~~
-=== НЕ РЕДАКТИРУЙТЕ ЭТОТ ФАЙЛ! ===-

Путь: ...\2011 - Concerto. One Night In Central Park [B0015977-02]

1 -=- Andrea Bocelli - Concerto. One Night In Central Park.flac -=- CDDA (100%)

179921812
[свернуть]

Спектр частот

[свернуть]

Скачать Andrea Bocelli - Concerto: One Night In Central Park



password: sergych
[свернуть]
My opinion of release: 10/10
__________________
TAIFUN.Wings of Soul

Вверх
Похожие темы
Тема Автор Раздел Ответов Последнее сообщение
Альбом Andrea Bocelli - Incanto sergych Classical 0 04.08.2014 21:03
Сборник Andrea Bocelli - The Best of Andrea Bocelli: Vivere sergych Зарубежная Поп-Музыка 0 31.07.2014 16:53
Альбом Andrea Bocelli - Andrea sergych Зарубежная Поп-Музыка 0 30.07.2014 20:32
Релиз Andrea Bocelli - My Christmas PUPOKIN Classical 0 05.11.2009 09:59
Альбом Andrea Bocelli - Incanto PUPOKIN Classical 0 01.11.2008 13:49


Метки
2011 , andrea bocelli , classical , concerto: one night in central park , opera , vocals

Опции темы

Ваши права в разделе
Вы не можете создавать новые темы
Вы не можете отвечать в темах
Вы не можете прикреплять вложения
Вы не можете редактировать свои сообщения

Быстрый переход



Текущее время: 22:26. Часовой пояс GMT +3.
Powered by vBulletin® Version 3.8.10
Copyright ©2000 - 2017, vBulletin Solutions, Inc. Перевод: zCarot
© 2008 - 2017 Taifun With Song
Яндекс.Метрика