TAIFUN With Song
Instrumental Релизы. Инструментальная музыка.

А знаете ли Вы, что...
Хобби Альберта Эйнштейна!
«Эйнштейн любил играть на скрипке и однажды принял участие в благотворительном концерте в Германии.»
 
Опции темы

  #1
Старый 02.04.2016, 17:58
sergych
Координатор
Досье
 
Аватар для sergych
Релиз Rene Aubry - Refuges


2011 - Rene Aubry - Refuges




Исполнитель/Artist: Rene Aubry
Альбом/Album: Refuges
Год/Year: 2011
Жанр/Genre: Instrumental, Modern Classical, Downtempo
Рекорд-лейбл/Record label: Wagram
Формат/Format: Free Lossless Audio Codec (*.flac)
Качество/Quality: Lossless
Тип рипа/RIP Type: image+.cue
Продолжительность/Length: 00:45:55
Источник/Source: Из интернета
Размер/Size: 231.2 MB

Сканы в комплекте

Треклист

1. Etreinte
2. Lied Guitare
3. Le Tunnel
4. Alice
5. Rasta La Vista
6. Sous Les Bombes
7. Refuges
8. Sweet Mambo
9. Sous Le Regard Du Ciel
10. Iceland
11. Ici Et La
12. Pluie D'Ete
13. Peur Du Vide
14. Anikouni
[свернуть]

youtube.com

[свернуть]

Исполнители/Performers

Rene Aubry - guitar banjo mandoline
Marc Buronfosse - contrabasse
Daniel Beaussier - clarinette flute
Antoine Banville - percussions
Jun Miyake - flugelhorn
Ali El Khatib - oud bouzok
[свернуть]

EAC лог

Exact Audio Copy V0.99 prebeta 5 from 4. May 2009

Отчёт EAC об извлечении, выполненном 28. июля 2011, 22:41

Rene Aubry / Refuges

Дисковод: Optiarc DVD RW AD-7530B Adapter: 1 ID: 0

Режим чтения : Достоверность
Использование точного потока : Да
Отключение кэша аудио : Да
Использование указателей C2 : Нет

Коррекция смещения при чтении : 6
Способность читать области Lead-in и Lead-out : Нет
Заполнение пропущенных сэмплов тишиной : Да
Удаление блоков с тишиной в начале и конце : Нет
При вычислениях CRC использовались нулевые сэмплы : Да
Интерфейс : Встроенный Win32-интерфейс для Win NT/2000

Выходной формат : Пользовательский кодировщик
Выбранный битрейт : 896 kBit/s
Качество : Высокий
Добавление ID3-тэга : Нет
Утилита сжатия : C:\Program Files\Exact Audio Copy\Flac\flac.exe
Дополнительные параметры : -8 -V %s


TOC извлечённого CD

Трек | Старт | Длительность | Начальный сектор | Конечный сектор
---------------------------------------------------------------------
1 | 0:00.00 | 3:50.51 | 0 | 17300
2 | 3:50.51 | 2:18.54 | 17301 | 27704
3 | 6:09.30 | 2:54.03 | 27705 | 40757
4 | 9:03.33 | 4:16.41 | 40758 | 59998
5 | 13:19.74 | 2:40.35 | 59999 | 72033
6 | 16:00.34 | 3:15.28 | 72034 | 86686
7 | 19:15.62 | 3:37.54 | 86687 | 103015
8 | 22:53.41 | 3:21.46 | 103016 | 118136
9 | 26:15.12 | 2:48.29 | 118137 | 130765
10 | 29:03.41 | 3:56.20 | 130766 | 148485
11 | 32:59.61 | 3:36.56 | 148486 | 164741
12 | 36:36.42 | 3:14.10 | 164742 | 179301
13 | 39:50.52 | 3:55.38 | 179302 | 196964
14 | 43:46.15 | 2:08.32 | 196965 | 206596


Характеристики диапазона извлечения и сообщения об ошибках

Выбранный диапазон

Имя файла F:\Новая папка (13)\Rene Aubry - Refuges 2010\Rene Aubry - Refuges.wav

Пиковый уровень 97.7 %
Качество диапазона 99.9 %
CRC копии C40A6925
Копирование... OK

Ошибок не произошло


AccurateRip: сводка

Трек 1 нет в базе данных
Трек 2 нет в базе данных
Трек 3 нет в базе данных
Трек 4 нет в базе данных
Трек 5 нет в базе данных
Трек 6 нет в базе данных
Трек 7 нет в базе данных
Трек 8 нет в базе данных
Трек 9 нет в базе данных
Трек 10 нет в базе данных
Трек 11 нет в базе данных
Трек 12 нет в базе данных
Трек 13 нет в базе данных
Трек 14 нет в базе данных

Ни одного трека нет в базе AccurateRip

Конец отчёта
[свернуть]

Файл CUE

REM GENRE Jazz
REM DATE 2010
REM DISCID C80AC20E
REM COMMENT ExactAudioCopy v0.99pb5
PERFORMER "Rene Aubry"
TITLE "Refuges"
FILE "Rene Aubry - Refuges.flac" WAVE
TRACK 01 AUDIO
TITLE "etreinte"
INDEX 01 00:00:00
TRACK 02 AUDIO
TITLE "Lied guitare"
INDEX 01 03:50:51
TRACK 03 AUDIO
TITLE "Le tunnel"
INDEX 01 06:09:30
TRACK 04 AUDIO
TITLE "Alice"
INDEX 01 09:03:33
TRACK 05 AUDIO
TITLE "Rasta la vista"
INDEX 01 13:19:74
TRACK 06 AUDIO
TITLE "Sous les bombes"
INDEX 01 16:00:34
TRACK 07 AUDIO
TITLE "Refuges"
INDEX 01 19:15:62
TRACK 08 AUDIO
TITLE "Sweet mambo"
INDEX 01 22:53:41
TRACK 09 AUDIO
TITLE "Sous le regard du ciel"
INDEX 01 26:15:12
TRACK 10 AUDIO
TITLE "Iceland"
INDEX 01 29:03:41
TRACK 11 AUDIO
TITLE "Ici et la"
INDEX 01 32:59:61
TRACK 12 AUDIO
TITLE "Pluie d'ete"
INDEX 01 36:36:42
TRACK 13 AUDIO
TITLE "Peur du vide"
INDEX 01 39:50:52
TRACK 14 AUDIO
TITLE "Anikouni"
INDEX 01 43:46:15
[свернуть]

Лог проверки качества

AUDIOCHECKER v2.0 beta (build 457) - by Dester -
~~~~~~~~~~~~~~~~~~~~~~~~~~~~~~~~~~
-=== НЕ РЕДАКТИРУЙТЕ ЭТОТ ФАЙЛ! ===-

Путь: ...\2011 - Refuges

1 -=- Rene Aubry - Refuges.flac -=- CDDA (100%)

61780372
[свернуть]

Спектр частот

[свернуть]

Скачать Rene Aubry - Refuges



password: sergych
[свернуть]
My opinion of release: 10/10
__________________
TAIFUN.Wings of Soul

Вверх
Пользователь сказал cпасибо:
TAIFUN (02.04.2016)
Похожие темы
Тема Автор Раздел Ответов Последнее сообщение
Альбом Rene Aubry - Steppe sergych Instrumental 5 06.04.2015 21:13
Альбом Rene Aubry - Plaisirs D'Amour sergych Instrumental 0 20.11.2011 17:48
Альбом Rene Aubry - Derives sergych Instrumental 0 27.06.2009 22:42
Альбом Rene Aubry - Libre Parcours sergych Instrumental 0 27.06.2009 20:57
Альбом Rene Aubry - Play Time sergych Instrumental 0 12.06.2009 20:26


Метки
2011 , downtempo , instrumental , modern classical , refuges , rene aubry

Опции темы

Ваши права в разделе
Вы не можете создавать новые темы
Вы не можете отвечать в темах
Вы не можете прикреплять вложения
Вы не можете редактировать свои сообщения

Быстрый переход



Текущее время: 20:12. Часовой пояс GMT +3.
Powered by vBulletin® Version 3.8.7
Copyright ©2000 - 2017, vBulletin Solutions, Inc. Перевод: zCarot
© 2008 - 2017 Taifun With Song
Яндекс.Метрика