TAIFUN With Song
R&B Ссылки на музыку в этом стиле

А знаете ли Вы, что...
Для прослушивания какого альбома нужно иметь четыре аудиосистемы?
«Восьмой студийный альбом альтернативной группы The Flaming Lips под названием Zaireeka был выпущен на 4 CD. Особенность альбома в том, что каждая композиция разделена на четыре составляющих, и для того чтобы прослушать песни в полной версии, нужно включить одновременно все диски на четырёх разных аудиосистемах. Слушатели также могут экспериментировать, проигрывая не все диски сразу, а в любой комбинации из двух или трёх штук.»
 
Опции темы

  #1
Старый 27.03.2016, 15:33
sergych
Координатор
Досье
 
Аватар для sergych
Релиз Anita Baker - A Night of Rapture {LIVE}


2004 - Anita Baker - A Night of Rapture {LIVE}




Исполнитель/Artist: Anita Baker
Альбом/Album: A Night of Rapture {LIVE}
Год/Year: 2004
Жанр/Genre: R&B, quiet storm, soul jazz, smooth jazz
Страна/Country: Соединённые Штаты
Рекорд-лейбл/Record label: Atlantic Records / Warner Music
Номер в каталоге/Catalogue #: R2 78144
Формат/Format: Free Lossless Audio Codec (*.flac)
Качество/Quality: Lossless
Тип рипа/RIP Type: image+.cue
Продолжительность/Length: 00:44:45
Источник/Source: Собственный рип
Размер/Size: 374.1 MB

Сканы в комплекте

Треклист

01. Caught Up In The Rapture [0:05:29.38]
02. Mystery [0:05:24.00]
03. Been So Long [0:05:52.14]
04. No One In The World [0:04:11.09]
05. Same Ole Love (365 Days a Year) [0:03:59.32]
06. Watch Your Step [0:06:20.32]
07. Moondance [0:04:08.26]
08. You Bring Me Joy [0:04:32.04]
09. Sweet Love [0:04:48.14]
[свернуть]

youtube.com

[свернуть]

Исполнители/Performers

Vocals: Anita Baker
Guitar: Donald Griffin
Percussions: Garry Glenn
Saxophone: Gerald Albright
Bass: Nathan East
Drums: James Bradley, Jr
Background vocals: Tanya Boyd, Saundra Simmons, Natalie Jackson (1986), Perri Sisters, Gina Taylor, Freida Williams (1987)
[свернуть]

EAC лог

Exact Audio Copy V1.1 from 23. June 2015

EAC extraction logfile from 27. February 2016, 14:26

Anita Baker / A Night of Rapture LIVE

Used drive : ATAPI iHAS124 D Adapter: 0 ID: 2

Read mode : Secure
Utilize accurate stream : Yes
Defeat audio cache : Yes
Make use of C2 pointers : No

Read offset correction : 6
Overread into Lead-In and Lead-Out : No
Fill up missing offset samples with silence : Yes
Delete leading and trailing silent blocks : No
Null samples used in CRC calculations : Yes
Used interface : Installed external ASPI interface

Used output format : User Defined Encoder
Selected bitrate : 1024 kBit/s
Quality : High
Add ID3 tag : Yes
Command line compressor : C:\Program Files (x86)\Exact Audio Copy\Flac\flac.exe
Additional command line options : -6 -V -T "ARTIST=%artist%" -T "TITLE=%title%" -T "ALBUM=%albumtitle%" -T "DATE=%year%" -T "TRACKNUMBER=%tracknr%" -T "GENRE=%genre%" -T "COMMENT=%comment%" -T "BAND=%albuminterpret%" -T "COMPOSER=%composer%" %haslyrics%--tag-from-file=LYRICS="%lyricsfile%"%haslyrics% -T "DISCNUMBER=%cdnumber%" -T "TOTALDISCS=%totalcds%" -T "TOTALTRACKS=%numtracks%" %hascover%--picture="%coverfile%"%hascover% %source% -o %dest%


TOC of the extracted CD

Track | Start | Length | Start sector | End sector
---------------------------------------------------------
1 | 0:00.00 | 5:29.38 | 0 | 24712
2 | 5:29.38 | 5:24.00 | 24713 | 49012
3 | 10:53.38 | 5:52.14 | 49013 | 75426
4 | 16:45.52 | 4:11.09 | 75427 | 94260
5 | 20:56.61 | 3:59.32 | 94261 | 112217
6 | 24:56.18 | 6:20.32 | 112218 | 140749
7 | 31:16.50 | 4:08.26 | 140750 | 159375
8 | 35:25.01 | 4:32.04 | 159376 | 179779
9 | 39:57.05 | 4:48.14 | 179780 | 201393
10 | 47:17.19 | 17:49.52 | 212794 | 293020


Range status and errors

Selected range

Filename C:\mm\Anita Baker\2004 - A Night Of Rapture {Live} [R2 78144]\Anita Baker - A Night of Rapture LIVE.wav

Peak level 98.8 %
Extraction speed 3.2 X
Range quality 100.0 %
Test CRC DD18D520
Copy CRC DD18D520
Copy OK

No errors occurred


AccurateRip summary

Track 1 accurately ripped (confidence 2) [DC34B553] (AR v2)
Track 2 accurately ripped (confidence 2) [A34B0854] (AR v2)
Track 3 accurately ripped (confidence 2) [E62F56A4] (AR v2)
Track 4 accurately ripped (confidence 2) [094ADE8F] (AR v2)
Track 5 accurately ripped (confidence 2) [927769F9] (AR v2)
Track 6 accurately ripped (confidence 2) [9C137DD6] (AR v2)
Track 7 accurately ripped (confidence 3) [E937BE8C] (AR v2)
Track 8 accurately ripped (confidence 2) [ADA7C874] (AR v2)
Track 9 accurately ripped (confidence 2) [3C134C5F] (AR v2)

All tracks accurately ripped

End of status report
[свернуть]

Файл CUE

REM GENRE R&B
REM DATE 2004
REM DISCID 980F420A
REM COMMENT "ExactAudioCopy v1.1"
PERFORMER "Anita Baker"
TITLE "A Night of Rapture LIVE"
FILE "Anita Baker - A Night of Rapture LIVE.flac" WAVE
TRACK 01 AUDIO
TITLE "Caught Up In The Rapture"
PERFORMER "Anita Baker"
INDEX 01 00:00:00
TRACK 02 AUDIO
TITLE "Mystery"
PERFORMER "Anita Baker"
INDEX 01 05:29:38
TRACK 03 AUDIO
TITLE "Been So Long"
PERFORMER "Anita Baker"
INDEX 00 10:51:64
INDEX 01 10:53:38
TRACK 04 AUDIO
TITLE "No One In The World"
PERFORMER "Anita Baker"
INDEX 01 16:45:52
TRACK 05 AUDIO
TITLE "Same Ole Love (365 Days a Year)"
PERFORMER "Anita Baker"
INDEX 00 20:55:30
INDEX 01 20:56:61
TRACK 06 AUDIO
TITLE "Watch Your Step"
PERFORMER "Anita Baker"
INDEX 01 24:56:18
TRACK 07 AUDIO
TITLE "Moondance"
PERFORMER "Anita Baker"
INDEX 00 31:14:68
INDEX 01 31:16:50
TRACK 08 AUDIO
TITLE "You Bring Me Joy"
PERFORMER "Anita Baker"
INDEX 00 35:22:71
INDEX 01 35:25:01
TRACK 09 AUDIO
TITLE "Sweet Love"
PERFORMER "Anita Baker"
INDEX 00 39:55:03
INDEX 01 39:57:05
[свернуть]

Лог проверки качества

AUDIOCHECKER v2.0 beta (build 457) - by Dester -
~~~~~~~~~~~~~~~~~~~~~~~~~~~~~~~~~~
-=== НЕ РЕДАКТИРУЙТЕ ЭТОТ ФАЙЛ! ===-

Путь: ...\2004 - A Night Of Rapture {Live} [R2 78144]

1 -=- Anita Baker - A Night of Rapture LIVE.flac -=- CDDA (100%)

20274228
[свернуть]

Спектр частот

[свернуть]

Скачать Anita Baker - A Night of Rapture {LIVE}



password: sergych
[свернуть]
My opinion of release: 10/10

Release info RInfo

Запись концертного тура Аниты 1986-87 годов, в поддержку альбома Rapture
__________________
TAIFUN.Wings of Soul

Вверх
Пользователь сказал cпасибо:
papa1954 (14.04.2016)
Похожие темы
Тема Автор Раздел Ответов Последнее сообщение
Альбом Anita Baker - My Everything sergych R&B 0 14.09.2013 15:32
Сборник Anita Baker - Sweet Love. The Very Best Of Anita Baker sergych R&B 0 14.09.2013 12:25
Альбом Anita Baker - Giving You The Best That I Got sergych R&B 0 14.09.2013 10:28
Альбом Anita Baker - Rapture sergych R&B 0 14.09.2013 10:04
Альбом Anita Baker - The Songstress sergych R&B 0 14.09.2013 09:40


Метки
2004 , a night of rapture {live} , anita baker , quiet storm , r&b , smooth jazz , soul jazz

Опции темы

Ваши права в разделе
Вы не можете создавать новые темы
Вы не можете отвечать в темах
Вы не можете прикреплять вложения
Вы не можете редактировать свои сообщения

Быстрый переход



Текущее время: 02:56. Часовой пояс GMT +3.
Powered by vBulletin® Version 3.8.10
Copyright ©2000 - 2017, vBulletin Solutions, Inc. Перевод: zCarot
© 2008 - 2017 Taifun With Song
Яндекс.Метрика