TAIFUN With Song
R&B Ссылки на музыку в этом стиле

А знаете ли Вы, что...
Кто такой Сироб Вокищнеберг, упомянутый в описании альбома «Яблокитай» группы «Наутилус Помпилиус»?
«В описании альбома «Яблокитай» группы «Наутилус Помпилиус» указан некий профессор Сироб Вокищнеберг, играющий на реверсах. Этот таинственный человек никто иной, как Борис Гребенщиков, записанный наоборот. Таким образом удачно обыграли его работу с реверсами — прокручиванием музыкальных фрагментов в обратном направлении.»
 
Опции темы

  #1
Старый 10.02.2016, 06:29
sergych
Координатор
Досье
 
Аватар для sergych
Релиз Jonathan Butler - Head to Head


1994 - Jonathan Butler - Head to Head




Исполнитель/Artist: Jonathan Butler
Альбом/Album: Head to Head
Год/Year: 1994
Жанр/Genre: R'n'B, Smooth jazz, Funky, Soul
Страна/Country: Соединённые Штаты
Рекорд-лейбл/Record label: Mercury / PolyGram Records
Номер в каталоге/Catalogue #: 314 522 682-2
Формат/Format: Free Lossless Audio Codec (*.flac)
Качество/Quality: Lossless
Тип рипа/RIP Type: image+.cue
Продолжительность/Length: 01:01:05
Источник/Source: Собственный рип
Размер/Size: 435.1 MB

Сканы в комплекте

Треклист

01. I'm On My Knees [0:04:59.25]
02. No Getting Over (No Way No How) [0:04:38.18]
03. Slow Down [0:04:04.00]
04. Can We Start All Over Again [0:05:07.72]
05. Tete A Tete (Head to Head) [0:01:49.40]
06. Celebration [0:05:12.35]
07. If I Fell [0:02:09.63]
08. Don't Fall In Love [0:04:04.07]
09. Now That You're Gone [0:04:35.03]
10. I'll Be With You [0:04:25.45]
11. In A Miracle [0:04:12.12]
12. Reflections [0:05:31.13]
13. Jodie [0:07:33.37]

Hidden Track
14. X [0:02:41.40]
[свернуть]

youtube.com

[свернуть]

EAC лог

Exact Audio Copy V1.1 from 23. June 2015

EAC extraction logfile from 4. February 2016, 1:05

Jonathan Butler / Head to Head

Used drive : ATAPI iHAS124 D Adapter: 0 ID: 2

Read mode : Secure
Utilize accurate stream : Yes
Defeat audio cache : Yes
Make use of C2 pointers : No

Read offset correction : 6
Overread into Lead-In and Lead-Out : No
Fill up missing offset samples with silence : Yes
Delete leading and trailing silent blocks : No
Null samples used in CRC calculations : Yes
Used interface : Installed external ASPI interface

Used output format : User Defined Encoder
Selected bitrate : 1024 kBit/s
Quality : High
Add ID3 tag : Yes
Command line compressor : C:\Program Files (x86)\Exact Audio Copy\Flac\flac.exe
Additional command line options : -6 -V -T "ARTIST=%artist%" -T "TITLE=%title%" -T "ALBUM=%albumtitle%" -T "DATE=%year%" -T "TRACKNUMBER=%tracknr%" -T "GENRE=%genre%" -T "COMMENT=%comment%" -T "BAND=%albuminterpret%" -T "COMPOSER=%composer%" %haslyrics%--tag-from-file=LYRICS="%lyricsfile%"%haslyrics% -T "DISCNUMBER=%cdnumber%" -T "TOTALDISCS=%totalcds%" -T "TOTALTRACKS=%numtracks%" %hascover%--picture="%coverfile%"%hascover% %source% -o %dest%


TOC of the extracted CD

Track | Start | Length | Start sector | End sector
---------------------------------------------------------
1 | 0:00.32 | 4:59.25 | 32 | 22481
2 | 4:59.57 | 4:38.18 | 22482 | 43349
3 | 9:38.00 | 4:04.00 | 43350 | 61649
4 | 13:42.00 | 5:07.72 | 61650 | 84746
5 | 18:49.72 | 1:49.40 | 84747 | 92961
6 | 20:39.37 | 5:12.35 | 92962 | 116396
7 | 25:51.72 | 2:09.63 | 116397 | 126134
8 | 28:01.60 | 4:04.07 | 126135 | 144441
9 | 32:05.67 | 4:35.03 | 144442 | 165069
10 | 36:40.70 | 4:25.45 | 165070 | 184989
11 | 41:06.40 | 4:12.12 | 184990 | 203901
12 | 45:18.52 | 5:31.13 | 203902 | 228739
13 | 50:49.65 | 7:33.37 | 228740 | 262751
14 | 58:23.27 | 2:41.40 | 262752 | 274866


Range status and errors

Selected range

Filename C:\mm\Jonathan Butler\1994 - Head To Head [314 522 682-2]\Jonathan Butler - Head to Head.wav

Peak level 99.8 %
Extraction speed 9.6 X
Range quality 100.0 %
Test CRC 5C9E5628
Copy CRC 5C9E5628
Copy OK

No errors occurred


AccurateRip summary

Track 1 accurately ripped (confidence 5) [15109C90] (AR v2)
Track 2 accurately ripped (confidence 5) [7CE54771] (AR v2)
Track 3 accurately ripped (confidence 5) [AAD3052F] (AR v2)
Track 4 accurately ripped (confidence 6) [13C1E95C] (AR v2)
Track 5 accurately ripped (confidence 5) [48C0C62B] (AR v2)
Track 6 accurately ripped (confidence 5) [530B90D6] (AR v2)
Track 7 accurately ripped (confidence 5) [1E583FDB] (AR v2)
Track 8 accurately ripped (confidence 5) [530F03CF] (AR v2)
Track 9 accurately ripped (confidence 5) [93F06367] (AR v2)
Track 10 accurately ripped (confidence 5) [16986943] (AR v2)
Track 11 accurately ripped (confidence 5) [C29C9402] (AR v2)
Track 12 accurately ripped (confidence 5) [517D6D9B] (AR v2)
Track 13 accurately ripped (confidence 5) [650A2061] (AR v2)
Track 14 accurately ripped (confidence 5) [B0ED5002] (AR v2)

All tracks accurately ripped

End of status report
[свернуть]

Файл CUE

REM GENRE Jazz
REM DATE 1994
REM DISCID 9D0E500E
REM COMMENT "ExactAudioCopy v1.1"
PERFORMER "Jonathan Butler"
TITLE "Head to Head"
FILE "Jonathan Butler - Head to Head.flac" WAVE
TRACK 01 AUDIO
TITLE "I'm On My Knees"
PERFORMER "Jonathan Butler"
INDEX 00 00:00:00
INDEX 01 00:00:32
TRACK 02 AUDIO
TITLE "No Getting Over (No Way No How)"
PERFORMER "Jonathan Butler"
INDEX 01 04:59:57
TRACK 03 AUDIO
TITLE "Slow Down"
PERFORMER "Jonathan Butler"
INDEX 01 09:38:00
TRACK 04 AUDIO
TITLE "Can We Start All Over Again"
PERFORMER "Jonathan Butler"
INDEX 01 13:42:00
TRACK 05 AUDIO
TITLE "Tete A Tete (Head to Head)"
PERFORMER "Jonathan Butler"
INDEX 01 18:49:72
TRACK 06 AUDIO
TITLE "Celebration"
PERFORMER "Jonathan Butler"
INDEX 01 20:39:37
TRACK 07 AUDIO
TITLE "If I Fell"
PERFORMER "Jonathan Butler"
INDEX 01 25:51:72
TRACK 08 AUDIO
TITLE "Don't Fall In Love"
PERFORMER "Jonathan Butler"
INDEX 01 28:01:60
TRACK 09 AUDIO
TITLE "Now That You're Gone"
PERFORMER "Jonathan Butler"
INDEX 01 32:05:67
TRACK 10 AUDIO
TITLE "I'll Be With You"
PERFORMER "Jonathan Butler"
INDEX 01 36:40:70
TRACK 11 AUDIO
TITLE "In A Miracle"
PERFORMER "Jonathan Butler"
INDEX 01 41:06:40
TRACK 12 AUDIO
TITLE "Reflections"
PERFORMER "Jonathan Butler"
INDEX 01 45:18:52
TRACK 13 AUDIO
TITLE "Jodie"
PERFORMER "Jonathan Butler"
INDEX 01 50:49:65
TRACK 14 AUDIO
TITLE "X"
PERFORMER "Jonathan Butler"
INDEX 00 56:23:42
INDEX 01 58:23:27
[свернуть]

Лог проверки качества

AUDIOCHECKER v2.0 beta (build 457) - by Dester - [Ссылки могут видеть только зарегистрированные пользователи. ]
~~~~~~~~~~~~~~~~~~~~~~~~~~~~~~~~~~
-=== НЕ РЕДАКТИРУЙТЕ ЭТОТ ФАЙЛ! ===-

Путь: ...\1994 - Head To Head [314 522 682-2]

1 -=- Jonathan Butler - Head to Head.flac -=- CDDA (100%)

187941892
[свернуть]

Спектр частот

[свернуть]

Скачать Jonathan Butler - Head to Head

[Ссылки могут видеть только зарегистрированные пользователи. ]

password: sergych
[свернуть]
My opinion of release: 10/10
__________________
TAIFUN.Wings of Soul

Вверх
Пользователь сказал cпасибо:
papa1954 (08.09.2016)
Похожие темы
Тема Автор Раздел Ответов Последнее сообщение
Альбом Jonathan Butler - Story Of Life sergych Jazz и Blues 0 04.01.2016 10:38
Альбом Jonathan Butler - Grace And Mercy sergych Jazz и Blues 0 05.12.2015 10:38
Альбом Jonathan Butler - Heal Our Land sergych Jazz и Blues 0 04.12.2015 20:35
Релиз Zed Head - Mortal Man PUPOKIN Blues Rock 0 24.01.2011 10:54
Альбом Jonathan Butler - Jonathan PUPOKIN Jazz и Blues 0 30.07.2010 10:34


Метки
1994 , funky , head to head , jonathan butler , r'n'b , smooth jazz , soul

Опции темы

Ваши права в разделе
Вы не можете создавать новые темы
Вы не можете отвечать в темах
Вы не можете прикреплять вложения
Вы не можете редактировать свои сообщения

Быстрый переход



Текущее время: 01:52. Часовой пояс GMT +3.
Powered by vBulletin® Version 3.8.7
Copyright ©2000 - 2017, vBulletin Solutions, Inc. Перевод: zCarot
© 2008 - 2017 Taifun With Song
Яндекс.Метрика