TAIFUN With Song
Instrumental Релизы. Инструментальная музыка.

А знаете ли Вы, что...
Почему среди китайцев и вьетнамцев больше в процентном отношении людей с абсолютным слухом?
«Большинство диалектов китайского, вьетнамский и некоторые другие языки Азии и Африки являются тональными, то есть один и тот же слог может иметь разные значения в зависимости от высоты произносимого звука. Среди носителей тональных языков отмечается больший процент людей с абсолютным слухом, так как они естественным образом привыкают к различению тонов с раннего детства.»
 
Опции темы

  #1
Старый 23.01.2016, 14:54
sergych
Координатор
Досье
 
Аватар для sergych
Релиз Vangelis - Themes


1989 - Vangelis - Themes




Исполнитель/Artist: Vangelis
Альбом/Album: Themes
Год/Year: 1989
Жанр/Genre: instrumental, world music
Страна/Country: Германия
Рекорд-лейбл/Record label: Polydor / Deutsche Grammophon
Номер в каталоге/Catalogue #: 839518-2
Формат/Format: Free Lossless Audio Codec (*.flac)
Качество/Quality: Lossless
Тип рипа/RIP Type: image+.cue
Продолжительность/Length: 01:03:59
Источник/Source: Собственный рип
Размер/Size: 361.4 MB

Сканы в комплекте

Треклист

01. End Titles from "Blade Runner" [0:05:01.02]
Previously unreleased
02. Main Theme from "Missing" [0:04:01.35]
Previously unreleased
03. L'Enfant [0:05:02.18]
From the album "Opera Sauvage"
04. Hymn [0:02:47.47]
From the album "Opera Sauvage"
05. Chung Kuo [0:05:32.03]
From the album "China"
06. The Tao of Love [0:02:46.62]
From the album "China"
07. Theme from "Antarctica" [0:03:54.55]
From the album "Antartica"
08. Love Theme from "Blade Runner" [0:05:00.28]
Previously unreleased
09. Opening Titles from "Mutiny on the Bounty" [0:04:18.45]
Previously unreleased
10. Closing Titles from "Mutiny on the Bounty" [0:05:00.50]
Previously unreleased
11. Memories of Green [0:05:44.22]
From the album "See You Later"
12. La Petite Fille De La Mer [0:05:53.73]
From the album "L'Apocalypse Des Animaux"
13. Five Circles [0:05:20.52]
From the album "Chariots Of Fire"
14. Chariots Of Fire [0:03:33.60]
From the album "Chariots Of Fire"
[свернуть]

youtube.com

[свернуть]

EAC лог

Exact Audio Copy V1.1 from 23. June 2015

EAC extraction logfile from 22. January 2016, 8:30

Vangelis / Themes

Used drive : ATAPI iHAS124 D Adapter: 0 ID: 2

Read mode : Secure
Utilize accurate stream : Yes
Defeat audio cache : Yes
Make use of C2 pointers : No

Read offset correction : 6
Overread into Lead-In and Lead-Out : No
Fill up missing offset samples with silence : Yes
Delete leading and trailing silent blocks : No
Null samples used in CRC calculations : Yes
Used interface : Installed external ASPI interface

Used output format : User Defined Encoder
Selected bitrate : 1024 kBit/s
Quality : High
Add ID3 tag : Yes
Command line compressor : C:\Program Files (x86)\Exact Audio Copy\Flac\flac.exe
Additional command line options : -6 -V -T "ARTIST=%artist%" -T "TITLE=%title%" -T "ALBUM=%albumtitle%" -T "DATE=%year%" -T "TRACKNUMBER=%tracknr%" -T "GENRE=%genre%" -T "COMMENT=%comment%" -T "BAND=%albuminterpret%" -T "COMPOSER=%composer%" %haslyrics%--tag-from-file=LYRICS="%lyricsfile%"%haslyrics% -T "DISCNUMBER=%cdnumber%" -T "TOTALDISCS=%totalcds%" -T "TOTALTRACKS=%numtracks%" %hascover%--picture="%coverfile%"%hascover% %source% -o %dest%


TOC of the extracted CD

Track | Start | Length | Start sector | End sector
---------------------------------------------------------
1 | 0:00.33 | 5:01.02 | 33 | 22609
2 | 5:01.35 | 4:01.35 | 22610 | 40719
3 | 9:02.70 | 5:02.18 | 40720 | 63387
4 | 14:05.13 | 2:47.47 | 63388 | 75959
5 | 16:52.60 | 5:32.03 | 75960 | 100862
6 | 22:24.63 | 2:46.62 | 100863 | 113374
7 | 25:11.50 | 3:54.55 | 113375 | 130979
8 | 29:06.30 | 5:00.28 | 130980 | 153507
9 | 34:06.58 | 4:18.45 | 153508 | 172902
10 | 38:25.28 | 5:00.50 | 172903 | 195452
11 | 43:26.03 | 5:44.22 | 195453 | 221274
12 | 49:10.25 | 5:53.73 | 221275 | 247822
13 | 55:04.23 | 5:20.52 | 247823 | 271874
14 | 60:25.00 | 3:33.60 | 271875 | 287909


Range status and errors

Selected range

Filename C:\mm\Vangelis\1989 - Themes [839518-2]\Vangelis - Themes.wav

Peak level 100.0 %
Extraction speed 9.0 X
Range quality 100.0 %
Test CRC 2853B827
Copy CRC 2853B827
Copy OK

No errors occurred


AccurateRip summary

Track 1 accurately ripped (confidence 200) [BD4B0EB5] (AR v2)
Track 2 accurately ripped (confidence 200) [F8875068] (AR v2)
Track 3 accurately ripped (confidence 200) [20CA6E7C] (AR v2)
Track 4 accurately ripped (confidence 200) [31922E01] (AR v2)
Track 5 accurately ripped (confidence 200) [BCF744A9] (AR v2)
Track 6 accurately ripped (confidence 200) [E3F15FB0] (AR v2)
Track 7 accurately ripped (confidence 200) [F0B09C0D] (AR v2)
Track 8 accurately ripped (confidence 200) [313EA986] (AR v2)
Track 9 accurately ripped (confidence 200) [A6F2AC63] (AR v2)
Track 10 accurately ripped (confidence 200) [7E7AD604] (AR v2)
Track 11 accurately ripped (confidence 200) [13F4601F] (AR v2)
Track 12 accurately ripped (confidence 200) [0B8358A2] (AR v2)
Track 13 accurately ripped (confidence 200) [EDEC667F] (AR v2)
Track 14 accurately ripped (confidence 200) [D8D4161F] (AR v2)

All tracks accurately ripped

End of status report
[свернуть]

Файл CUE

REM GENRE Soundtrack
REM DATE 1989
REM DISCID B40EFE0E
REM COMMENT "ExactAudioCopy v1.1"
PERFORMER "Vangelis"
TITLE "Themes"
FILE "Vangelis - Themes.flac" WAVE
TRACK 01 AUDIO
TITLE "End Titles from 'Blade Runner'"
PERFORMER "Vangelis"
INDEX 00 00:00:00
INDEX 01 00:00:33
TRACK 02 AUDIO
TITLE "Main Theme from 'Missing'"
PERFORMER "Vangelis"
INDEX 00 04:58:60
INDEX 01 05:01:35
TRACK 03 AUDIO
TITLE "L'Enfant"
PERFORMER "Vangelis"
INDEX 00 09:00:58
INDEX 01 09:02:70
TRACK 04 AUDIO
TITLE "Hymn"
PERFORMER "Vangelis"
INDEX 00 14:04:00
INDEX 01 14:05:13
TRACK 05 AUDIO
TITLE "Chung Kuo"
PERFORMER "Vangelis"
INDEX 00 16:50:23
INDEX 01 16:52:60
TRACK 06 AUDIO
TITLE "The Tao of Love"
PERFORMER "Vangelis"
INDEX 00 22:23:15
INDEX 01 22:24:63
TRACK 07 AUDIO
TITLE "Theme from 'Antarctica'"
PERFORMER "Vangelis"
INDEX 00 25:10:45
INDEX 01 25:11:50
TRACK 08 AUDIO
TITLE "Love Theme from 'Blade Runner'"
PERFORMER "Vangelis"
INDEX 01 29:06:30
TRACK 09 AUDIO
TITLE "Opening Titles from 'Mutiny on the Bounty'"
PERFORMER "Vangelis"
INDEX 00 34:02:63
INDEX 01 34:06:58
TRACK 10 AUDIO
TITLE "Closing Titles from 'Mutiny on the Bounty'"
PERFORMER "Vangelis"
INDEX 00 38:23:38
INDEX 01 38:25:28
TRACK 11 AUDIO
TITLE "Memories of Green"
PERFORMER "Vangelis"
INDEX 00 43:24:33
INDEX 01 43:26:03
TRACK 12 AUDIO
TITLE "La Petite Fille De La Mer"
PERFORMER "Vangelis"
INDEX 00 49:05:13
INDEX 01 49:10:25
TRACK 13 AUDIO
TITLE "Five Circles"
PERFORMER "Vangelis"
INDEX 00 55:03:40
INDEX 01 55:04:23
TRACK 14 AUDIO
TITLE "Chariots Of Fire"
PERFORMER "Vangelis"
INDEX 00 60:22:63
INDEX 01 60:25:00
[свернуть]

Лог проверки качества

AUDIOCHECKER v2.0 beta (build 457) - by Dester - [Ссылки могут видеть только зарегистрированные пользователи. ]
~~~~~~~~~~~~~~~~~~~~~~~~~~~~~~~~~~
-=== НЕ РЕДАКТИРУЙТЕ ЭТОТ ФАЙЛ! ===-

Путь: ...\1989 - Themes [839518-2]

1 -=- Vangelis - Themes.flac -=- CDDA (100%)

79581028
[свернуть]

Спектр частот

[свернуть]

Скачать Vangelis - Themes

[Ссылки могут видеть только зарегистрированные пользователи. ]

password: sergych
[свернуть]
My opinion of release: 10/10
__________________
TAIFUN.Wings of Soul

Вверх
Похожие темы
Тема Автор Раздел Ответов Последнее сообщение
Альбом Vangelis - Direct sergych New age 0 22.02.2014 08:38
VA Talkin Jazz:Themes from the Black Forest PUPOKIN Jazz и Blues 0 24.10.2010 10:19
Альбом VANGELIS - Cosmos PUPOKIN Instrumental 0 24.10.2009 10:29
Vangelis Alex_vn69 Instrumental [FAQ] 1 08.08.2008 13:04
Альбом Vangelis - Oceanic Alex_vn69 Instrumental 0 03.05.2008 01:00


Метки
1989 , instrumental , themes , vangelis , world music

Опции темы

Ваши права в разделе
Вы не можете создавать новые темы
Вы не можете отвечать в темах
Вы не можете прикреплять вложения
Вы не можете редактировать свои сообщения

Быстрый переход



Текущее время: 01:49. Часовой пояс GMT +3.
Powered by vBulletin® Version 3.8.7
Copyright ©2000 - 2017, vBulletin Solutions, Inc. Перевод: zCarot
© 2008 - 2017 Taifun With Song
Яндекс.Метрика