TAIFUN With Song
Саундтреки Саундтреки к фильмам, анимации, играм, сериалам

А знаете ли Вы, что...
Какая консерватория носит имя композитора, которому отказала в приёме?
«Миланская консерватория носит имя Джузеппе Верди, хотя в 1833 году отказала ему в зачислении. Юному Верди было сказано, что он на 4 года старше обычного возраста принимаемых, не является гражданином Ломбардо-Венецианского королевства и лишён музыкального таланта.»
 
Опции темы

  #1
Старый 23.01.2016, 14:28
sergych
Координатор
Досье
 
Аватар для sergych
Релиз Vangelis - 1492 - Conquest Of Paradise


1992 - Vangelis - 1492 - Conquest Of Paradise




Исполнитель/Artist: Vangelis
Альбом/Album: 1492 - Conquest Of Paradise
Год/Year: 1992
Жанр/Genre: instrumental
Страна/Country: Германия
Рекорд-лейбл/Record label: Warner Music
Номер в каталоге/Catalogue #: 4509-91014-2
Формат/Format: Free Lossless Audio Codec (*.flac)
Качество/Quality: Lossless
Тип рипа/RIP Type: image+.cue
Продолжительность/Length: 00:54:52
Источник/Source: Собственный рип
Размер/Size: 479.5 MB

Сканы в комплекте

Треклист

01. Opening [0:01:22.07]
02. Conquest Of Paradise [0:04:48.05]
03. Monastery Of La Rabida [0:03:38.60]
04. City Of Isabel [0:02:16.20]
05. Light And Shadow [0:03:46.70]
06. Deliverance [0:03:28.70]
07. West Across The Ocean Sea [0:02:53.03]
08. Eternity [0:01:59.67]
09. Hispanola [0:04:56.38]
10. Moxica And The Horse [0:07:06.40]
11. Twenty Eighth Parallel [0:05:14.22]
12. Pinta, Nina, Santa Maria (Into Eternity) [0:13:20.30]
[свернуть]

youtube.com

[свернуть]

EAC лог

Exact Audio Copy V1.1 from 23. June 2015

EAC extraction logfile from 19. January 2016, 21:21

Vangelis / 1492. Conquest Of Paradise

Used drive : ATAPI iHAS124 D Adapter: 0 ID: 2

Read mode : Secure
Utilize accurate stream : Yes
Defeat audio cache : Yes
Make use of C2 pointers : No

Read offset correction : 6
Overread into Lead-In and Lead-Out : No
Fill up missing offset samples with silence : Yes
Delete leading and trailing silent blocks : No
Null samples used in CRC calculations : Yes
Used interface : Installed external ASPI interface

Used output format : User Defined Encoder
Selected bitrate : 1024 kBit/s
Quality : High
Add ID3 tag : Yes
Command line compressor : C:\Program Files (x86)\Exact Audio Copy\Flac\flac.exe
Additional command line options : -6 -V -T "ARTIST=%artist%" -T "TITLE=%title%" -T "ALBUM=%albumtitle%" -T "DATE=%year%" -T "TRACKNUMBER=%tracknr%" -T "GENRE=%genre%" -T "COMMENT=%comment%" -T "BAND=%albuminterpret%" -T "COMPOSER=%composer%" %haslyrics%--tag-from-file=LYRICS="%lyricsfile%"%haslyrics% -T "DISCNUMBER=%cdnumber%" -T "TOTALDISCS=%totalcds%" -T "TOTALTRACKS=%numtracks%" %hascover%--picture="%coverfile%"%hascover% %source% -o %dest%


TOC of the extracted CD

Track | Start | Length | Start sector | End sector
---------------------------------------------------------
1 | 0:00.00 | 1:22.07 | 0 | 6156
2 | 1:22.07 | 4:48.05 | 6157 | 27761
3 | 6:10.12 | 3:38.60 | 27762 | 44171
4 | 9:48.72 | 2:16.20 | 44172 | 54391
5 | 12:05.17 | 3:46.70 | 54392 | 71411
6 | 15:52.12 | 3:28.70 | 71412 | 87081
7 | 19:21.07 | 2:53.03 | 87082 | 100059
8 | 22:14.10 | 1:59.67 | 100060 | 109051
9 | 24:14.02 | 4:56.38 | 109052 | 131289
10 | 29:10.40 | 7:06.40 | 131290 | 163279
11 | 36:17.05 | 5:14.22 | 163280 | 186851
12 | 41:31.27 | 13:20.30 | 186852 | 246881


Range status and errors

Selected range

Filename C:\mm\Vangelis\1992 - 1492. Conquest Of Paradise [4509-91014-2]\Vangelis - 1492. Conquest Of Paradise.wav

Peak level 94.4 %
Extraction speed 8.6 X
Range quality 99.9 %
Test CRC 3B8ED839
Copy CRC 3B8ED839
Copy OK

No errors occurred


AccurateRip summary

Track 1 accurately ripped (confidence 200) [10F34CAE] (AR v2)
Track 2 accurately ripped (confidence 200) [85476EC3] (AR v2)
Track 3 accurately ripped (confidence 200) [9984C0D6] (AR v2)
Track 4 accurately ripped (confidence 200) [F40DC7F9] (AR v2)
Track 5 accurately ripped (confidence 200) [F6A950CF] (AR v2)
Track 6 accurately ripped (confidence 200) [1E44AC81] (AR v2)
Track 7 accurately ripped (confidence 200) [A86D1BDC] (AR v2)
Track 8 accurately ripped (confidence 200) [0EF8E25A] (AR v2)
Track 9 accurately ripped (confidence 200) [B39705B6] (AR v2)
Track 10 accurately ripped (confidence 200) [134BEE20] (AR v2)
Track 11 accurately ripped (confidence 200) [C553249E] (AR v2)
Track 12 accurately ripped (confidence 200) [2B235838] (AR v2)

All tracks accurately ripped

End of status report
[свернуть]

Файл CUE

REM GENRE Soundtrack
REM DATE 1992
REM DISCID A60CDB0C
REM COMMENT "ExactAudioCopy v1.1"
PERFORMER "Vangelis"
TITLE "1492. Conquest Of Paradise"
FILE "Vangelis - 1492. Conquest Of Paradise.flac" WAVE
TRACK 01 AUDIO
TITLE "Opening"
PERFORMER "Vangelis"
INDEX 01 00:00:00
TRACK 02 AUDIO
TITLE "Conquest Of Paradise"
PERFORMER "Vangelis"
INDEX 01 01:22:07
TRACK 03 AUDIO
TITLE "Monastery Of La Rabida"
PERFORMER "Vangelis"
INDEX 01 06:10:12
TRACK 04 AUDIO
TITLE "City Of Isabel"
PERFORMER "Vangelis"
INDEX 01 09:48:72
TRACK 05 AUDIO
TITLE "Light And Shadow"
PERFORMER "Vangelis"
INDEX 01 12:05:17
TRACK 06 AUDIO
TITLE "Deliverance"
PERFORMER "Vangelis"
INDEX 01 15:52:12
TRACK 07 AUDIO
TITLE "West Across The Ocean Sea"
PERFORMER "Vangelis"
INDEX 01 19:21:07
TRACK 08 AUDIO
TITLE "Eternity"
PERFORMER "Vangelis"
INDEX 01 22:14:10
TRACK 09 AUDIO
TITLE "Hispanola"
PERFORMER "Vangelis"
INDEX 01 24:14:02
TRACK 10 AUDIO
TITLE "Moxica And The Horse"
PERFORMER "Vangelis"
INDEX 01 29:10:40
TRACK 11 AUDIO
TITLE "Twenty Eighth Parallel"
PERFORMER "Vangelis"
INDEX 01 36:17:05
TRACK 12 AUDIO
TITLE "Pinta, Nina, Santa Maria (Into Eternity)"
PERFORMER "Vangelis"
INDEX 01 41:31:27
[свернуть]

Лог проверки качества

AUDIOCHECKER v2.0 beta (build 457) - by Dester - [Ссылки могут видеть только зарегистрированные пользователи. ]
~~~~~~~~~~~~~~~~~~~~~~~~~~~~~~~~~~
-=== НЕ РЕДАКТИРУЙТЕ ЭТОТ ФАЙЛ! ===-

Путь: ...\1992 - 1492. Conquest Of Paradise [4509-91014-2]

1 -=- Vangelis - 1492. Conquest Of Paradise.flac -=- CDDA (100%)

152438148
[свернуть]

Спектр частот

[свернуть]

Скачать Vangelis - 1492 - Conquest Of Paradise

[Ссылки могут видеть только зарегистрированные пользователи. ]

password: sergych
[свернуть]
My opinion of release: 10/10
__________________
TAIFUN.Wings of Soul

Вверх
Похожие темы
Тема Автор Раздел Ответов Последнее сообщение
Альбом Vangelis - Direct sergych New age 0 22.02.2014 08:38
Релиз Conquest - IV PUPOKIN Power Metal 0 28.12.2011 11:10
VA Conquest (The Ultimate Hardstyle Compilation) PUPOKIN Techno 0 22.04.2010 10:44
Vangelis Alex_vn69 Instrumental [FAQ] 1 08.08.2008 13:04
Альбом Vangelis - Oceanic Alex_vn69 Instrumental 0 03.05.2008 01:00


Метки
1492 - conquest of paradise , 1992 , instrumental , vangelis

Опции темы

Ваши права в разделе
Вы не можете создавать новые темы
Вы не можете отвечать в темах
Вы не можете прикреплять вложения
Вы не можете редактировать свои сообщения

Быстрый переход



Текущее время: 06:40. Часовой пояс GMT +3.
Powered by vBulletin® Version 3.8.7
Copyright ©2000 - 2017, vBulletin Solutions, Inc. Перевод: zCarot
© 2008 - 2017 Taifun With Song
Яндекс.Метрика