TAIFUN With Song
R&B Ссылки на музыку в этом стиле

А знаете ли Вы, что...
В какую группу взяли гитариста главным образом для того, чтобы он мог покупать спиртное остальным музыкантам?
«Когда Декстер Холланд и Грег Крисел, будучи учениками выпускного класса школы, создали группу Offspring, они пригласили в неё гитариста Кевина «Нудлс» Вассермана. Тот был старше на три года, работал школьным уборщиком и уже имел опыт игры в рок-группе. Но главной причиной приглашения стало то, что Вассерман был совершеннолетним и мог покупать спиртное Холланду и Криселу.»
 
Опции темы

  #1
Старый 29.12.2015, 22:56
sergych
Координатор
Досье
 
Аватар для sergych
Релиз Boyz II Men - Throwback v.1


2004 - Boyz II Men - Throwback v.1




Исполнитель/Artist: Boyz II Men
Альбом/Album: Throwback v.1
Год/Year: 2004
Жанр/Genre: R&B, pop, soul, hip hop
Страна/Country: Япония
Рекорд-лейбл/Record label: Pony Canyon
Номер в каталоге/Catalogue #: PCCY-01693
Формат/Format: Free Lossless Audio Codec (*.flac)
Качество/Quality: Lossless
Тип рипа/RIP Type: image+.cue
Продолжительность/Length: 00:50:53
Источник/Source: Собственный рип
Размер/Size: 467.8 MB

Сканы в комплекте

Треклист

01. Let It Whip [0:04:37.59]
02. Let's Stay Together [0:03:55.56]
03. What You Won't Do For Love (featuring MC Lyte) [0:04:08.40]
04. Cutie Pie [0:05:07.28]
05. Close The Door [0:04:12.12]
06. For The Love Of You [0:05:41.10]
07. Sara Smile [0:03:40.09]
08. Human Nature featuring Claudette Ortiz [0:04:10.58]
09. Time Will Reveal [0:04:20.14]
10. I Miss You [0:05:35.47]
11. You Make Me Feel Brand New [0:05:23.09]
[свернуть]

youtube.com

[свернуть]

EAC лог

Exact Audio Copy V1.1 from 23. June 2015

EAC extraction logfile from 28. December 2015, 20:04

Boyz II Men / Throwback v.1

Used drive : ATAPI iHAS124 D Adapter: 0 ID: 2

Read mode : Secure
Utilize accurate stream : Yes
Defeat audio cache : Yes
Make use of C2 pointers : No

Read offset correction : 6
Overread into Lead-In and Lead-Out : No
Fill up missing offset samples with silence : Yes
Delete leading and trailing silent blocks : No
Null samples used in CRC calculations : Yes
Used interface : Installed external ASPI interface

Used output format : User Defined Encoder
Selected bitrate : 1024 kBit/s
Quality : High
Add ID3 tag : Yes
Command line compressor : C:\Program Files (x86)\Exact Audio Copy\Flac\flac.exe
Additional command line options : -6 -V -T "ARTIST=%artist%" -T "TITLE=%title%" -T "ALBUM=%albumtitle%" -T "DATE=%year%" -T "TRACKNUMBER=%tracknr%" -T "GENRE=%genre%" -T "COMMENT=%comment%" -T "BAND=%albuminterpret%" -T "COMPOSER=%composer%" %haslyrics%--tag-from-file=LYRICS="%lyricsfile%"%haslyrics% -T "DISCNUMBER=%cdnumber%" -T "TOTALDISCS=%totalcds%" -T "TOTALTRACKS=%numtracks%" %hascover%--picture="%coverfile%"%hascover% %source% -o %dest%


TOC of the extracted CD

Track | Start | Length | Start sector | End sector
---------------------------------------------------------
1 | 0:00.00 | 4:37.59 | 0 | 20833
2 | 4:37.59 | 3:55.56 | 20834 | 38514
3 | 8:33.40 | 4:08.40 | 38515 | 57154
4 | 12:42.05 | 5:07.28 | 57155 | 80207
5 | 17:49.33 | 4:12.12 | 80208 | 99119
6 | 22:01.45 | 5:41.10 | 99120 | 124704
7 | 27:42.55 | 3:40.09 | 124705 | 141213
8 | 31:22.64 | 4:10.58 | 141214 | 160021
9 | 35:33.47 | 4:20.14 | 160022 | 179535
10 | 39:53.61 | 5:35.47 | 179536 | 204707
11 | 45:29.33 | 5:23.09 | 204708 | 228941
12 | 53:24.42 | 20:33.33 | 240342 | 332849


Range status and errors

Selected range

Filename C:\mm\Boyz II Men\2004 - Throwback v.1 [PCCY-01693]\Boyz II Men - Throwback v.1.wav

Peak level 100.0 %
Extraction speed 9.1 X
Range quality 100.0 %
Test CRC 3C9F7D87
Copy CRC 3C9F7D87
Copy OK

No errors occurred


AccurateRip summary

Track 1 accurately ripped (confidence 2) [57A5322B] (AR v1)
Track 2 accurately ripped (confidence 2) [F7A8BFD5] (AR v1)
Track 3 accurately ripped (confidence 2) [E901C266] (AR v1)
Track 4 accurately ripped (confidence 2) [59328326] (AR v1)
Track 5 accurately ripped (confidence 2) [8A2563AB] (AR v1)
Track 6 accurately ripped (confidence 2) [4E9262A0] (AR v1)
Track 7 accurately ripped (confidence 2) [0980D341] (AR v1)
Track 8 accurately ripped (confidence 3) [78859C84] (AR v1)
Track 9 accurately ripped (confidence 2) [4F8D1F2B] (AR v1)
Track 10 accurately ripped (confidence 3) [920BE941] (AR v1)
Track 11 accurately ripped (confidence 2) [FD4E488B] (AR v1)

All tracks accurately ripped

End of status report
[свернуть]

Файл CUE

REM GENRE R&B
REM DATE 2004
REM DISCID 9E11560C
REM COMMENT "ExactAudioCopy v1.1"
PERFORMER "Boyz II Men"
TITLE "Throwback v.1"
FILE "Boyz II Men - Throwback v.1.flac" WAVE
TRACK 01 AUDIO
TITLE "Let It Whip"
PERFORMER "Boyz II Men"
INDEX 01 00:00:00
TRACK 02 AUDIO
TITLE "Let's Stay Together"
PERFORMER "Boyz II Men"
INDEX 01 04:37:59
TRACK 03 AUDIO
TITLE "What You Won't Do For Love (featuring MC Lyte)"
PERFORMER "Boyz II Men"
INDEX 01 08:33:40
TRACK 04 AUDIO
TITLE "Cutie Pie"
PERFORMER "Boyz II Men"
INDEX 01 12:42:05
TRACK 05 AUDIO
TITLE "Close The Door"
PERFORMER "Boyz II Men"
INDEX 01 17:49:33
TRACK 06 AUDIO
TITLE "For The Love Of You"
PERFORMER "Boyz II Men"
INDEX 01 22:01:45
TRACK 07 AUDIO
TITLE "Sara Smile"
PERFORMER "Boyz II Men"
INDEX 01 27:42:55
TRACK 08 AUDIO
TITLE "Human Nature featuring Claudette Ortiz"
PERFORMER "Boyz II Men"
INDEX 01 31:22:64
TRACK 09 AUDIO
TITLE "Time Will Reveal"
PERFORMER "Boyz II Men"
INDEX 01 35:33:47
TRACK 10 AUDIO
TITLE "I Miss You"
PERFORMER "Boyz II Men"
INDEX 01 39:53:61
TRACK 11 AUDIO
TITLE "You Make Me Feel Brand New"
PERFORMER "Boyz II Men"
INDEX 01 45:29:33
[свернуть]

Лог проверки качества

AUDIOCHECKER v2.0 beta (build 457) - by Dester - [Ссылки могут видеть только зарегистрированные пользователи. ]
~~~~~~~~~~~~~~~~~~~~~~~~~~~~~~~~~~
-=== НЕ РЕДАКТИРУЙТЕ ЭТОТ ФАЙЛ! ===-

Путь: ...\2004 - Throwback v.1 [PCCY-01693]

1 -=- Boyz II Men - Throwback v.1.flac -=- CDDA (100%)

257532372
[свернуть]

Спектр частот

[свернуть]

Скачать Boyz II Men - Throwback v.1

[Ссылки могут видеть только зарегистрированные пользователи. ]

password: sergych
[свернуть]
My opinion of release: 9/10
__________________
TAIFUN.Wings of Soul

Вверх
3 пользователя(ей) сказали cпасибо:
Показать список поблагодаривших
Похожие темы
Тема Автор Раздел Ответов Последнее сообщение
Альбом Boyz II Men - Cooleyhighharmony sergych R&B 0 26.03.2015 19:11
Альбом Boyz II Men - Evolution sergych R&B 0 18.03.2014 19:02
Альбом Boyz II Men – II sergych R&B 1 23.11.2013 00:18
Boyz II Men - Can't Let Her Go sergych R&B 0 06.07.2008 11:32
Boyz II Men sergych R&B [FAQ] 0 06.07.2008 10:24


Метки
2004 , boyz ii men , hip hop , pop , r&b , soul , throwback v.1

Опции темы

Ваши права в разделе
Вы не можете создавать новые темы
Вы не можете отвечать в темах
Вы не можете прикреплять вложения
Вы не можете редактировать свои сообщения

Быстрый переход



Текущее время: 23:37. Часовой пояс GMT +3.
Powered by vBulletin® Version 3.8.7
Copyright ©2000 - 2017, vBulletin Solutions, Inc. Перевод: zCarot
© 2008 - 2017 Taifun With Song
Яндекс.Метрика