TAIFUN With Song
Instrumental Релизы. Инструментальная музыка.

А знаете ли Вы, что...
Где недавно был совершён акт каннибализма с согласия жертвы?
«В 2001 году в немецком Ротенбурге Армин Майвес поместил в интернете серию каннибальских объявлений в поисках молодого парня в возрасте от 18 до 30 лет, желающего умереть и быть съеденным. На одно из объявлений откликнулся Бернд Брандес. Он, по своему собственному согласию, был убит и частично съеден Майвесом, позже приговорённым к пожизненному заключению. На этот сюжет написана песня «Mein Teil» группы Rammstein.»
 
Опции темы

  #1
Старый 23.12.2015, 21:36
sergych
Координатор
Досье
 
Аватар для sergych
Релиз Russ Conway - At The Theatre


1961(2012) - Russ Conway - At The Theatre




Исполнитель/Artist: Russ Conway
Альбом/Album: At The Theatre
Год/Year: 1961
Ремастеринг/Remaster: 2012
Жанр/Genre: instrumental pop
Страна/Country: Нидерланды
Рекорд-лейбл/Record label: Hallmark
Номер в каталоге/Catalogue #: 711112
Формат/Format: Free Lossless Audio Codec (*.flac)
Качество/Quality: Lossless
Тип рипа/RIP Type: image+.cue
Продолжительность/Length: 00:38:18
Источник/Source: Собственный рип
Размер/Size: 135.8 MB

Сканы в комплекте

Треклист

01. Some Enchanted Evening [0:02:46.43]
02. People Will Say We're In Love [0:02:12.67]
03. They Say It's Wonderful [0:02:55.06]
04. This Is My Lovely Day [0:02:25.70]
05. Hello Young Lovers [0:03:19.44]
06. Almost Like Being In Love [0:01:53.43]
07. So In Love [0:03:15.48]
08. On The Street Where You Live [0:03:18.50]
09. We'll Gather Lilacs [0:02:56.56]
10. If I Loved You [0:02:55.70]
11. You've Done Something To My Heart [0:02:25.66]
12. Tonight [0:02:41.14]
13. I've Never Been In Love Before [0:02:28.56]
14. The Party's Over [0:02:40.50]
[свернуть]

youtube.com

[свернуть]

Исполнители/Performers

Russ Conway - piano
Tony Osborne And His Orchestra
[свернуть]

EAC лог

Exact Audio Copy V1.1 from 23. June 2015

EAC extraction logfile from 20. December 2015, 22:13

Russ Conway / At The Theatre

Used drive : ATAPI iHAS124 D Adapter: 0 ID: 2

Read mode : Secure
Utilize accurate stream : Yes
Defeat audio cache : Yes
Make use of C2 pointers : No

Read offset correction : 6
Overread into Lead-In and Lead-Out : No
Fill up missing offset samples with silence : Yes
Delete leading and trailing silent blocks : No
Null samples used in CRC calculations : Yes
Used interface : Installed external ASPI interface

Used output format : User Defined Encoder
Selected bitrate : 1024 kBit/s
Quality : High
Add ID3 tag : Yes
Command line compressor : C:\Program Files (x86)\Exact Audio Copy\Flac\flac.exe
Additional command line options : -6 -V -T "ARTIST=%artist%" -T "TITLE=%title%" -T "ALBUM=%albumtitle%" -T "DATE=%year%" -T "TRACKNUMBER=%tracknr%" -T "GENRE=%genre%" -T "COMMENT=%comment%" -T "BAND=%albuminterpret%" -T "COMPOSER=%composer%" %haslyrics%--tag-from-file=LYRICS="%lyricsfile%"%haslyrics% -T "DISCNUMBER=%cdnumber%" -T "TOTALDISCS=%totalcds%" -T "TOTALTRACKS=%numtracks%" %hascover%--picture="%coverfile%"%hascover% %source% -o %dest%


TOC of the extracted CD

Track | Start | Length | Start sector | End sector
---------------------------------------------------------
1 | 0:00.00 | 2:46.43 | 0 | 12492
2 | 2:46.43 | 2:12.67 | 12493 | 22459
3 | 4:59.35 | 2:55.06 | 22460 | 35590
4 | 7:54.41 | 2:25.70 | 35591 | 46535
5 | 10:20.36 | 3:19.44 | 46536 | 61504
6 | 13:40.05 | 1:53.43 | 61505 | 70022
7 | 15:33.48 | 3:15.48 | 70023 | 84695
8 | 18:49.21 | 3:18.50 | 84696 | 99595
9 | 22:07.71 | 2:56.56 | 99596 | 112851
10 | 25:04.52 | 2:55.70 | 112852 | 126046
11 | 28:00.47 | 2:25.66 | 126047 | 136987
12 | 30:26.38 | 2:41.14 | 136988 | 149076
13 | 33:07.52 | 2:28.56 | 149077 | 160232
14 | 35:36.33 | 2:40.50 | 160233 | 172282


Range status and errors

Selected range

Filename C:\mm\Russ Conway\1961(2012) - At The Theatre [711112]\Russ Conway - At The Theatre.wav

Peak level 63.0 %
Extraction speed 7.7 X
Range quality 99.9 %
Test CRC 9E560952
Copy CRC 9E560952
Copy OK

No errors occurred


AccurateRip summary

Track 1 not present in database
Track 2 not present in database
Track 3 not present in database
Track 4 not present in database
Track 5 not present in database
Track 6 not present in database
Track 7 not present in database
Track 8 not present in database
Track 9 not present in database
Track 10 not present in database
Track 11 not present in database
Track 12 not present in database
Track 13 not present in database
Track 14 not present in database

None of the tracks are present in the AccurateRip database

End of status report
[свернуть]

Файл CUE

REM GENRE "Instrumental Pop"
REM DATE 1961
REM DISCID BB08F90E
REM COMMENT "ExactAudioCopy v1.1"
PERFORMER "Russ Conway"
TITLE "At The Theatre"
FILE "Russ Conway - At The Theatre.flac" WAVE
TRACK 01 AUDIO
TITLE "Some Enchanted Evening"
PERFORMER "Russ Conway"
INDEX 01 00:00:00
TRACK 02 AUDIO
TITLE "People Will Say We're In Love"
PERFORMER "Russ Conway"
INDEX 01 02:46:43
TRACK 03 AUDIO
TITLE "They Say It's Wonderful"
PERFORMER "Russ Conway"
INDEX 01 04:59:35
TRACK 04 AUDIO
TITLE "This Is My Lovely Day"
PERFORMER "Russ Conway"
INDEX 01 07:54:41
TRACK 05 AUDIO
TITLE "Hello Young Lovers"
PERFORMER "Russ Conway"
INDEX 01 10:20:36
TRACK 06 AUDIO
TITLE "Almost Like Being In Love"
PERFORMER "Russ Conway"
INDEX 01 13:40:05
TRACK 07 AUDIO
TITLE "So In Love"
PERFORMER "Russ Conway"
INDEX 01 15:33:48
TRACK 08 AUDIO
TITLE "On The Street Where You Live"
PERFORMER "Russ Conway"
INDEX 01 18:49:21
TRACK 09 AUDIO
TITLE "We'll Gather Lilacs"
PERFORMER "Russ Conway"
INDEX 01 22:07:71
TRACK 10 AUDIO
TITLE "If I Loved You"
PERFORMER "Russ Conway"
INDEX 01 25:04:52
TRACK 11 AUDIO
TITLE "You've Done Something To My Heart"
PERFORMER "Russ Conway"
INDEX 01 28:00:47
TRACK 12 AUDIO
TITLE "Tonight"
PERFORMER "Russ Conway"
INDEX 01 30:26:38
TRACK 13 AUDIO
TITLE "I've Never Been In Love Before"
PERFORMER "Russ Conway"
INDEX 01 33:07:52
TRACK 14 AUDIO
TITLE "The Party's Over"
PERFORMER "Russ Conway"
INDEX 01 35:36:33
[свернуть]

Лог проверки качества

AUDIOCHECKER v2.0 beta (build 457) - by Dester - [Ссылки могут видеть только зарегистрированные пользователи. ]
~~~~~~~~~~~~~~~~~~~~~~~~~~~~~~~~~~
-=== НЕ РЕДАКТИРУЙТЕ ЭТОТ ФАЙЛ! ===-

Путь: ...\1961(2012) - At The Theatre [711112]

1 -=- Russ Conway - At The Theatre.flac -=- MPEG (100%)

90443204
[свернуть]

Спектр частот

[свернуть]

Скачать Russ Conway - At The Theatre

[Ссылки могут видеть только зарегистрированные пользователи. ]

password: sergych
[свернуть]
My opinion of release: 10/10
__________________
TAIFUN.Wings of Soul

Вверх
Похожие темы
Тема Автор Раздел Ответов Последнее сообщение
Альбом Russ Freeman - Drive sergych Jazz и Blues 0 10.10.2015 21:36
Альбом Russ Conway - Time To Celebrate sergych Instrumental 0 18.04.2015 18:14
Альбом Russ Conway - Party Time sergych Instrumental 0 12.04.2015 22:11
Альбом Styx - Paradise Theatre PUPOKIN Progressive Rock 0 03.11.2009 10:53
DJ Russ Harris feat. Jiga DarkDan House 0 27.04.2008 15:05


Метки
1961 , at the theatre , instrumental pop , russ conway

Опции темы

Ваши права в разделе
Вы не можете создавать новые темы
Вы не можете отвечать в темах
Вы не можете прикреплять вложения
Вы не можете редактировать свои сообщения

Быстрый переход



Текущее время: 01:30. Часовой пояс GMT +3.
Powered by vBulletin® Version 3.8.7
Copyright ©2000 - 2017, vBulletin Solutions, Inc. Перевод: zCarot
© 2008 - 2017 Taifun With Song
Яндекс.Метрика