TAIFUN With Song
Вернуться   TAIFUN With Song > Music (обменник) > Другие направления музыки > Instrumental
Расширенный поиск
Instrumental Релизы. Инструментальная музыка.

А знаете ли Вы, что...
Что поётся в песенке «уно-уно-уно, ун моменто»?
«Песенка «уно-уно-уно, ун моменто» из фильма «Формула любви» кажется написанной на итальянском языке. В действительности её текст представляет собой несвязный набор из итальянских слов, а придуман он был композитором фильма Геннадием Гладковым.»
 
Опции темы

  #1
Старый 14.12.2015, 19:41
sergych
Координатор
Досье
 
Аватар для sergych
Релиз Estas Tonne - Dragon of Delight, Vol. II


2004 - Estas Tonne - Dragon of Delight, Vol. II




Исполнитель/Artist: Estas Tonne
Альбом/Album: Dragon of Delight, Vol. II
Год/Year: 2004
Жанр/Genre: instrumental, world music
Формат/Format: Free Lossless Audio Codec (*.flac)
Качество/Quality: Lossless
Тип рипа/RIP Type: image+.cue
Продолжительность/Length: 00:39:44
Источник/Source: Из интернета
Размер/Size: 164.2 MB


Треклист

01. Cuban Dance Intro (2004) [0:02:08.70]
02. Cuban Dance (2004) [0:06:34.32]
03. All Gypsies Swing [0:02:59.44]
04. Bohemian Skies (2003) [0:05:51.53]
05. The March Of Angels [0:03:57.13]
06. Just 4 Fun [0:01:39.67]
07. David's Song (2004) [0:03:45.34]
08. Russian Nostalgia [0:01:58.44]
09. Rebirth [0:03:20.04]
10. Dragon's Story (2003) [0:05:38.04]
11. Cuban Dance For Alvaren [0:01:49.17]
[свернуть]

youtube.com

[свернуть]

EAC лог

Exact Audio Copy V1.1 from 23. June 2015

EAC extraction logfile from 14. December 2015, 20:46

Estas Tonne / Dragon of Delight, Vol. II

Used drive : ATAPI iHAS124 D Adapter: 0 ID: 2

Read mode : Secure
Utilize accurate stream : Yes
Defeat audio cache : Yes
Make use of C2 pointers : No

Read offset correction : 6
Overread into Lead-In and Lead-Out : No
Fill up missing offset samples with silence : Yes
Delete leading and trailing silent blocks : No
Null samples used in CRC calculations : Yes
Used interface : Installed external ASPI interface

Used output format : User Defined Encoder
Selected bitrate : 1024 kBit/s
Quality : High
Add ID3 tag : Yes
Command line compressor : C:\Program Files (x86)\Exact Audio Copy\Flac\flac.exe
Additional command line options : -6 -V -T "ARTIST=%artist%" -T "TITLE=%title%" -T "ALBUM=%albumtitle%" -T "DATE=%year%" -T "TRACKNUMBER=%tracknr%" -T "GENRE=%genre%" -T "COMMENT=%comment%" -T "BAND=%albuminterpret%" -T "COMPOSER=%composer%" %haslyrics%--tag-from-file=LYRICS="%lyricsfile%"%haslyrics% -T "DISCNUMBER=%cdnumber%" -T "TOTALDISCS=%totalcds%" -T "TOTALTRACKS=%numtracks%" %hascover%--picture="%coverfile%"%hascover% %source% -o %dest%


TOC of the extracted CD

Track | Start | Length | Start sector | End sector
---------------------------------------------------------
1 | 0:00.00 | 2:08.70 | 0 | 9669
2 | 2:08.70 | 6:34.32 | 9670 | 39251
3 | 8:43.27 | 2:59.44 | 39252 | 52720
4 | 11:42.71 | 5:51.53 | 52721 | 79098
5 | 17:34.49 | 3:57.13 | 79099 | 96886
6 | 21:31.62 | 1:39.67 | 96887 | 104378
7 | 23:11.54 | 3:45.34 | 104379 | 121287
8 | 26:57.13 | 1:58.44 | 121288 | 130181
9 | 28:55.57 | 3:20.04 | 130182 | 145185
10 | 32:15.61 | 5:38.04 | 145186 | 170539
11 | 37:53.65 | 1:49.17 | 170540 | 178731


Range status and errors

Selected range

Filename C:\mm\Estas Tonne\2004 - Dragon of Delight, Vol. II\Estas Tonne - Dragon of Delight, Vol. II.wav

Peak level 99.7 %
Extraction speed 8.6 X
Range quality 99.9 %
Test CRC 82A543D3
Copy CRC 82A543D3
Copy OK

No errors occurred


AccurateRip summary

Track 1 not present in database
Track 2 not present in database
Track 3 not present in database
Track 4 not present in database
Track 5 not present in database
Track 6 not present in database
Track 7 not present in database
Track 8 not present in database
Track 9 not present in database
Track 10 not present in database
Track 11 not present in database

None of the tracks are present in the AccurateRip database

End of status report
[свернуть]

Файл CUE

REM GENRE Instrumental
REM DATE 2004
REM DISCID 8F094F0B
REM COMMENT "ExactAudioCopy v1.1"
PERFORMER "Estas Tonne"
TITLE "Dragon of Delight, Vol. II"
FILE "Estas Tonne - Dragon of Delight, Vol. II.flac" WAVE
TRACK 01 AUDIO
TITLE "Cuban Dance Intro (2004)"
PERFORMER "Estas Tonne"
INDEX 01 00:00:00
TRACK 02 AUDIO
TITLE "Cuban Dance (2004)"
PERFORMER "Estas Tonne"
INDEX 01 02:08:70
TRACK 03 AUDIO
TITLE "All Gypsies Swing"
PERFORMER "Estas Tonne"
INDEX 01 08:43:27
TRACK 04 AUDIO
TITLE "Bohemian Skies (2003)"
PERFORMER "Estas Tonne"
INDEX 01 11:42:71
TRACK 05 AUDIO
TITLE "The March Of Angels"
PERFORMER "Estas Tonne"
INDEX 01 17:34:49
TRACK 06 AUDIO
TITLE "Just 4 Fun"
PERFORMER "Estas Tonne"
INDEX 01 21:31:62
TRACK 07 AUDIO
TITLE "David's Song (2004)"
PERFORMER "Estas Tonne"
INDEX 01 23:11:54
TRACK 08 AUDIO
TITLE "Russian Nostalgia"
PERFORMER "Estas Tonne"
INDEX 01 26:57:13
TRACK 09 AUDIO
TITLE "Rebirth"
PERFORMER "Estas Tonne"
INDEX 01 28:55:57
TRACK 10 AUDIO
TITLE "Dragon's Story (2003)"
PERFORMER "Estas Tonne"
INDEX 01 32:15:61
TRACK 11 AUDIO
TITLE "Cuban Dance For Alvaren"
PERFORMER "Estas Tonne"
INDEX 01 37:53:65
[свернуть]

Лог проверки качества

AUDIOCHECKER v2.0 beta (build 457) - by Dester - [Ссылки могут видеть только зарегистрированные пользователи. ]
~~~~~~~~~~~~~~~~~~~~~~~~~~~~~~~~~~
-=== НЕ РЕДАКТИРУЙТЕ ЭТОТ ФАЙЛ! ===-

Путь: ...\2004 - Dragon of Delight, Vol. II

1 -=- Estas Tonne - Dragon of Delight, Vol. II.flac -=- CDDA (100%)

63486964
[свернуть]

Спектр частот

[свернуть]

Скачать Estas Tonne - Dragon of Delight, Vol. II

[Ссылки могут видеть только зарегистрированные пользователи. ]

password: sergych
[свернуть]
My opinion of release: 10/10
__________________
TAIFUN.Wings of Soul

Вверх
Пользователь сказал cпасибо:
TAIFUN (15.12.2015)
Похожие темы
Тема Автор Раздел Ответов Последнее сообщение
Релиз Ice Dragon - Dream Dragon PUPOKIN Metal 0 11.07.2012 09:38
VA Soft Ambient Delight PUPOKIN Downtempo 0 09.01.2012 10:53
Альбом Art Blakey & The Jazz Messengers - Buhaina's Delight PUPOKIN Jazz и Blues 0 14.02.2011 10:24
Альбом Delight - Eternity ReAl Alternative Metal 0 11.10.2008 19:35
Альбом Delight - Breaking Ground ReAl Alternative Metal 0 09.10.2008 17:12


Метки
2004 , dragon of delight vol. ii , estas tonne , instrumental , world music

Опции темы

Ваши права в разделе
Вы не можете создавать новые темы
Вы не можете отвечать в темах
Вы не можете прикреплять вложения
Вы не можете редактировать свои сообщения

Быстрый переход



Текущее время: 16:38. Часовой пояс GMT +3.
Powered by vBulletin® Version 3.8.7
Copyright ©2000 - 2017, vBulletin Solutions, Inc. Перевод: zCarot
© 2008 - 2017 Taifun With Song
Яндекс.Метрика