TAIFUN With Song
Саундтреки Саундтреки к фильмам, анимации, играм, сериалам

А знаете ли Вы, что...
Зачем в Англии 19 века надевали чехлы на ножки роялей?
«В пуританской Англии 19 века из общественной жизни старательно изгонялось всё, что могло показаться хоть сколько-нибудь эротичным. Так, во время концертов на ножки роялей надевали чехлы, чтобы никто, глядя на эти голые ножки, не задумался о чём-нибудь непристойном.»
 
Опции темы

  #1
Старый 05.12.2015, 12:18
sergych
Координатор
Досье
 
Аватар для sergych
Релиз Cirque Du Soleil - Dralion


2005 - Cirque Du Soleil - Dralion




Исполнитель/Artist: Cirque Du Soleil
Альбом/Album: Dralion
Год/Year: 2005
Жанр/Genre: soundtrack
Страна/Country: Австралия
Рекорд-лейбл/Record label: Cirque Du Soleil / Universal Music
Номер в каталоге/Catalogue #: 9871078
Формат/Format: Free Lossless Audio Codec (*.flac)
Качество/Quality: Lossless
Тип рипа/RIP Type: image+.cue
Продолжительность/Length: 00:50:35
Источник/Source: Собственный рип
Размер/Size: 396 MB

Сканы в комплекте

Треклист

01. Stella Errans [0:04:36.03]
02. Ombra [0:05:57.50]
03. Spiritual Spiral [0:04:14.11]
04. Miracula Aeternitatis [0:05:17.19]
05. Bamboo [0:01:26.10]
06. Ballare [0:05:42.27]
07. Ravendhi [0:04:39.47]
08. Ninkou Latora [0:05:14.28]
09. Aborigenes Jam [0:03:08.32]
10. Hinkò [0:05:48.57]
11. Kamadé [0:04:29.32]
[свернуть]

youtube.com

[свернуть]

Исполнители/Performers

Composer: Violaine Corradi
[свернуть]

EAC лог

Exact Audio Copy V1.1 from 23. June 2015

EAC extraction logfile from 5. December 2015, 4:50

Cirque Du Soleil / Dralion

Used drive : ATAPI iHAS124 D Adapter: 0 ID: 2

Read mode : Secure
Utilize accurate stream : Yes
Defeat audio cache : Yes
Make use of C2 pointers : No

Read offset correction : 6
Overread into Lead-In and Lead-Out : No
Fill up missing offset samples with silence : Yes
Delete leading and trailing silent blocks : No
Null samples used in CRC calculations : Yes
Used interface : Installed external ASPI interface

Used output format : User Defined Encoder
Selected bitrate : 1024 kBit/s
Quality : High
Add ID3 tag : Yes
Command line compressor : C:\Program Files (x86)\Exact Audio Copy\Flac\flac.exe
Additional command line options : -6 -V -T "ARTIST=%artist%" -T "TITLE=%title%" -T "ALBUM=%albumtitle%" -T "DATE=%year%" -T "TRACKNUMBER=%tracknr%" -T "GENRE=%genre%" -T "COMMENT=%comment%" -T "BAND=%albuminterpret%" -T "COMPOSER=%composer%" %haslyrics%--tag-from-file=LYRICS="%lyricsfile%"%haslyrics% -T "DISCNUMBER=%cdnumber%" -T "TOTALDISCS=%totalcds%" -T "TOTALTRACKS=%numtracks%" %hascover%--picture="%coverfile%"%hascover% %source% -o %dest%


TOC of the extracted CD

Track | Start | Length | Start sector | End sector
---------------------------------------------------------
1 | 0:00.00 | 4:36.03 | 0 | 20702
2 | 4:36.03 | 5:57.50 | 20703 | 47527
3 | 10:33.53 | 4:14.11 | 47528 | 66588
4 | 14:47.64 | 5:17.19 | 66589 | 90382
5 | 20:05.08 | 1:26.10 | 90383 | 96842
6 | 21:31.18 | 5:42.27 | 96843 | 122519
7 | 27:13.45 | 4:39.47 | 122520 | 143491
8 | 31:53.17 | 5:14.28 | 143492 | 167069
9 | 37:07.45 | 3:08.32 | 167070 | 181201
10 | 40:16.02 | 5:48.57 | 181202 | 207358
11 | 46:04.59 | 4:29.32 | 207359 | 227565


Range status and errors

Selected range

Filename C:\mm\Cirque Du Soleil\2005 - Dralion [9871078]\Cirque Du Soleil - Dralion.wav

Peak level 100.0 %
Extraction speed 3.2 X
Range quality 100.0 %
Test CRC 3F0DA6CA
Copy CRC 3F0DA6CA
Copy OK

No errors occurred


AccurateRip summary

Track 1 accurately ripped (confidence 7) [A739B010] (AR v2)
Track 2 accurately ripped (confidence 7) [A58E26BF] (AR v2)
Track 3 accurately ripped (confidence 7) [4BEF5AC2] (AR v2)
Track 4 accurately ripped (confidence 7) [A63D4506] (AR v2)
Track 5 accurately ripped (confidence 7) [3C288D32] (AR v2)
Track 6 accurately ripped (confidence 7) [5B001AF6] (AR v2)
Track 7 accurately ripped (confidence 7) [9E76F221] (AR v2)
Track 8 accurately ripped (confidence 7) [D2AE071A] (AR v2)
Track 9 accurately ripped (confidence 7) [C4E00C76] (AR v2)
Track 10 accurately ripped (confidence 7) [4B38E332] (AR v2)
Track 11 accurately ripped (confidence 7) [C08602B9] (AR v2)

All tracks accurately ripped

End of status report
[свернуть]

Файл CUE

REM GENRE Soundtrack
REM DATE 1999
REM DISCID A50BDA0B
REM COMMENT "ExactAudioCopy v1.1"
PERFORMER "Cirque Du Soleil"
TITLE "Dralion"
FILE "Cirque Du Soleil - Dralion.flac" WAVE
TRACK 01 AUDIO
TITLE "Stella Errans"
PERFORMER "Cirque Du Soleil"
INDEX 01 00:00:00
TRACK 02 AUDIO
TITLE "Ombra"
PERFORMER "Cirque Du Soleil"
INDEX 01 04:36:03
TRACK 03 AUDIO
TITLE "Spiritual Spiral"
PERFORMER "Cirque Du Soleil"
INDEX 00 10:32:21
INDEX 01 10:33:53
TRACK 04 AUDIO
TITLE "Miracula Aeternitatis"
PERFORMER "Cirque Du Soleil"
INDEX 00 14:45:61
INDEX 01 14:47:64
TRACK 05 AUDIO
TITLE "Bamboo"
PERFORMER "Cirque Du Soleil"
INDEX 00 20:03:23
INDEX 01 20:05:08
TRACK 06 AUDIO
TITLE "Ballare"
PERFORMER "Cirque Du Soleil"
INDEX 00 21:30:37
INDEX 01 21:31:18
TRACK 07 AUDIO
TITLE "Ravendhi"
PERFORMER "Cirque Du Soleil"
INDEX 00 27:11:70
INDEX 01 27:13:45
TRACK 08 AUDIO
TITLE "Ninkou Latora"
PERFORMER "Cirque Du Soleil"
INDEX 00 31:52:47
INDEX 01 31:53:17
TRACK 09 AUDIO
TITLE "Aborigenes Jam"
PERFORMER "Cirque Du Soleil"
INDEX 00 37:06:62
INDEX 01 37:07:45
TRACK 10 AUDIO
TITLE "Hinko"
PERFORMER "Cirque Du Soleil"
INDEX 00 40:16:00
INDEX 01 40:16:02
TRACK 11 AUDIO
TITLE "Kamade"
PERFORMER "Cirque Du Soleil"
INDEX 00 46:02:65
INDEX 01 46:04:59
[свернуть]

Лог проверки качества

AUDIOCHECKER v2.0 beta (build 457) - by Dester -
~~~~~~~~~~~~~~~~~~~~~~~~~~~~~~~~~~
-=== НЕ РЕДАКТИРУЙТЕ ЭТОТ ФАЙЛ! ===-

Путь: ...\2005 - Dralion [9871078]

1 -=- Cirque Du Soleil - Dralion.flac -=- CDDA (99%)

116422004
[свернуть]

Спектр частот

[свернуть]

Скачать Cirque Du Soleil - Dralion



password: sergych
[свернуть]
My opinion of release: 9/10
__________________
TAIFUN.Wings of Soul

Вверх
Пользователь сказал cпасибо:
impact (17.08.2016)
Похожие темы
Тема Автор Раздел Ответов Последнее сообщение
Саундтрек Cirque Du Soleil - Viva Elvis: The Album sergych Саундтреки 0 14.05.2015 19:30
Сборник Cirque Du Soleil - Le Best of Cirque du Soleil sergych Саундтреки 0 14.05.2015 18:57
Саундтрек Cirque Du Soleil - Mystere: Live in Las Vegas sergych Саундтреки 0 13.05.2015 20:35
Альбом Cirque Du Soleil - Alegria sergych Саундтреки 0 25.10.2014 10:29
Cirque du Soleil: Сказочный мир / Cirque du Soleil: Worlds Away (2012) HDRip maxy666 Киномания 0 30.03.2013 21:35


Метки
2005 , cirque du soleil , dralion , soundtrack

Опции темы

Ваши права в разделе
Вы не можете создавать новые темы
Вы не можете отвечать в темах
Вы не можете прикреплять вложения
Вы не можете редактировать свои сообщения

Быстрый переход



Текущее время: 02:29. Часовой пояс GMT +3.
Powered by vBulletin® Version 3.8.7
Copyright ©2000 - 2017, vBulletin Solutions, Inc. Перевод: zCarot
© 2008 - 2017 Taifun With Song
Яндекс.Метрика