TAIFUN With Song
Вернуться   TAIFUN With Song > Music (обменник) > Другие направления музыки > R&B
Расширенный поиск
R&B Ссылки на музыку в этом стиле

А знаете ли Вы, что...
Какое совпадение связало смерти солиста Boney M и Григория Распутина?
«Бобби Фаррелл, единственный мужчина в диско-группе Boney M, во время исполнения одного из главных хитов группы «Rasputin» часто гримировался в образ Распутина. Фаррелл умер от остановки сердца во время гастролей в Санкт-Петербурге 30 декабря 2010 года — того же числа и в том же городе, что и сам Распутин.»
 
Опции темы

  #1
Старый 14.11.2015, 17:39
sergych
Координатор
Досье
 
Аватар для sergych
Релиз Stevie Wonder - The Best Of Stevie Wonder {20th Century Masters. The Christmas Collection}


2004 - Stevie Wonder - The Best Of Stevie Wonder {20th Century Masters. The Christmas Collection}




Исполнитель/Artist: Stevie Wonder
Альбом/Album: The Best Of Stevie Wonder {20th Century Masters. The Christmas Collection}
Год/Year: 2004
Жанр/Genre: christmas, soul, r'n'b
Страна/Country: Соединённые Штаты
Рекорд-лейбл/Record label: Motown Records
Номер в каталоге/Catalogue #: B0002831-02
Формат/Format: Free Lossless Audio Codec (*.flac)
Качество/Quality: Lossless
Тип рипа/RIP Type: image+.cue
Продолжительность/Length: 00:42:19
Источник/Source: Собственный рип
Размер/Size: 303.9 MB

Сканы в комплекте

Треклист

01. Someday At Christmas [0:02:50.18]
02. Silver Bells [0:02:23.72]
03. Ave Maria [0:03:57.38]
04. The Little Drummer Boy [0:03:06.65]
05. One Little Christmas Tree [0:02:48.62]
06. The Day That Love Began [0:03:37.18]
07. The Christmas Song (Merry Christmas To You) [0:03:07.70]
08. Bedtime For Toys [0:03:29.45]
09. Christmastime [0:02:33.00]
10. Twinkle Twinkle Little Me [0:03:14.25]
11. A Warm Little Home On A Hill [0:03:26.55]
12. What Christmas Means To Me [0:02:30.17]
13. The Miracles Of Christmas [0:02:25.53]
14. Everyone's A Kid At Christmas Time [0:02:46.57]
[свернуть]

youtube.com

[свернуть]

EAC лог

Exact Audio Copy V1.1 from 23. June 2015

EAC extraction logfile from 12. November 2015, 19:29

Stevie Wonder / The Best Of {20th Century Masters. The Christmas Collection}

Used drive : ATAPI iHAS124 D Adapter: 0 ID: 2

Read mode : Secure
Utilize accurate stream : Yes
Defeat audio cache : Yes
Make use of C2 pointers : No

Read offset correction : 6
Overread into Lead-In and Lead-Out : No
Fill up missing offset samples with silence : Yes
Delete leading and trailing silent blocks : No
Null samples used in CRC calculations : Yes
Used interface : Installed external ASPI interface

Used output format : User Defined Encoder
Selected bitrate : 1024 kBit/s
Quality : High
Add ID3 tag : Yes
Command line compressor : C:\Program Files (x86)\Exact Audio Copy\Flac\flac.exe
Additional command line options : -6 -V -T "ARTIST=%artist%" -T "TITLE=%title%" -T "ALBUM=%albumtitle%" -T "DATE=%year%" -T "TRACKNUMBER=%tracknr%" -T "GENRE=%genre%" -T "COMMENT=%comment%" -T "BAND=%albuminterpret%" -T "COMPOSER=%composer%" %haslyrics%--tag-from-file=LYRICS="%lyricsfile%"%haslyrics% -T "DISCNUMBER=%cdnumber%" -T "TOTALDISCS=%totalcds%" -T "TOTALTRACKS=%numtracks%" %hascover%--picture="%coverfile%"%hascover% %source% -o %dest%


TOC of the extracted CD

Track | Start | Length | Start sector | End sector
---------------------------------------------------------
1 | 0:00.00 | 2:50.18 | 0 | 12767
2 | 2:50.18 | 2:23.72 | 12768 | 23564
3 | 5:14.15 | 3:57.38 | 23565 | 41377
4 | 9:11.53 | 3:06.65 | 41378 | 55392
5 | 12:18.43 | 2:48.62 | 55393 | 68054
6 | 15:07.30 | 3:37.18 | 68055 | 84347
7 | 18:44.48 | 3:07.70 | 84348 | 98442
8 | 21:52.43 | 3:29.45 | 98443 | 114162
9 | 25:22.13 | 2:33.00 | 114163 | 125637
10 | 27:55.13 | 3:14.25 | 125638 | 140212
11 | 31:09.38 | 3:26.55 | 140213 | 155717
12 | 34:36.18 | 2:30.17 | 155718 | 166984
13 | 37:06.35 | 2:25.53 | 166985 | 177912
14 | 39:32.13 | 2:46.57 | 177913 | 190419


Range status and errors

Selected range

Filename C:\mm\Stevie Wonder\2004 - The Best Of {20th Century Masters. The Christmas Collection} [B0002831-02]\Stevie Wonder - The Best Of {20th Century Masters. The Christmas Collection}.wav

Peak level 100.0 %
Extraction speed 8.9 X
Range quality 100.0 %
Test CRC 7D32E385
Copy CRC 7D32E385
Copy OK

No errors occurred


AccurateRip summary

Track 1 accurately ripped (confidence 10) [849C3EDD] (AR v2)
Track 2 accurately ripped (confidence 10) [24F0FC42] (AR v2)
Track 3 accurately ripped (confidence 10) [22044E60] (AR v2)
Track 4 accurately ripped (confidence 10) [B3C83830] (AR v2)
Track 5 accurately ripped (confidence 10) [4FA06FE5] (AR v2)
Track 6 accurately ripped (confidence 10) [DD46047B] (AR v2)
Track 7 accurately ripped (confidence 10) [618A565B] (AR v2)
Track 8 accurately ripped (confidence 10) [3FE3AE38] (AR v2)
Track 9 accurately ripped (confidence 10) [AC73C211] (AR v2)
Track 10 accurately ripped (confidence 10) [C8A904C0] (AR v2)
Track 11 accurately ripped (confidence 10) [C8E7A92A] (AR v2)
Track 12 accurately ripped (confidence 10) [61572311] (AR v2)
Track 13 accurately ripped (confidence 10) [E8714EDC] (AR v2)
Track 14 accurately ripped (confidence 10) [F9F0CBB5] (AR v2)

All tracks accurately ripped

End of status report
[свернуть]

Файл CUE

REM GENRE Xmas
REM DATE 2004
REM DISCID B409EA0E
REM COMMENT "ExactAudioCopy v1.1"
PERFORMER "Stevie Wonder"
TITLE "The Best Of {20th Century Masters. The Christmas Collection}"
FILE "Stevie Wonder - The Best Of {20th Century Masters. The Christmas Collection}.flac" WAVE
TRACK 01 AUDIO
TITLE "Someday At Christmas"
PERFORMER "Stevie Wonder"
INDEX 01 00:00:00
TRACK 02 AUDIO
TITLE "Silver Bells"
PERFORMER "Stevie Wonder"
INDEX 00 02:48:62
INDEX 01 02:50:18
TRACK 03 AUDIO
TITLE "Ave Maria"
PERFORMER "Stevie Wonder"
INDEX 00 05:12:60
INDEX 01 05:14:15
TRACK 04 AUDIO
TITLE "The Little Drummer Boy"
PERFORMER "Stevie Wonder"
INDEX 00 09:10:21
INDEX 01 09:11:53
TRACK 05 AUDIO
TITLE "One Little Christmas Tree"
PERFORMER "Stevie Wonder"
INDEX 00 12:17:12
INDEX 01 12:18:43
TRACK 06 AUDIO
TITLE "The Day That Love Began"
PERFORMER "Stevie Wonder"
INDEX 00 15:05:74
INDEX 01 15:07:30
TRACK 07 AUDIO
TITLE "The Christmas Song (Merry Christmas To You)"
PERFORMER "Stevie Wonder"
INDEX 00 18:43:17
INDEX 01 18:44:48
TRACK 08 AUDIO
TITLE "Bedtime For Toys"
PERFORMER "Stevie Wonder"
INDEX 00 21:51:11
INDEX 01 21:52:43
TRACK 09 AUDIO
TITLE "Christmastime"
PERFORMER "Stevie Wonder"
INDEX 00 25:20:38
INDEX 01 25:22:13
TRACK 10 AUDIO
TITLE "Twinkle Twinkle Little Me"
PERFORMER "Stevie Wonder"
INDEX 00 27:53:32
INDEX 01 27:55:13
TRACK 11 AUDIO
TITLE "A Warm Little Home On A Hill"
PERFORMER "Stevie Wonder"
INDEX 00 31:08:06
INDEX 01 31:09:38
TRACK 12 AUDIO
TITLE "What Christmas Means To Me"
PERFORMER "Stevie Wonder"
INDEX 00 34:34:61
INDEX 01 34:36:18
TRACK 13 AUDIO
TITLE "The Miracles Of Christmas"
PERFORMER "Stevie Wonder"
INDEX 00 37:04:03
INDEX 01 37:06:35
TRACK 14 AUDIO
TITLE "Everyone's A Kid At Christmas Time"
PERFORMER "Stevie Wonder"
INDEX 00 39:30:51
INDEX 01 39:32:13
[свернуть]

Лог проверки качества

AUDIOCHECKER v2.0 beta (build 457) - by Dester -
~~~~~~~~~~~~~~~~~~~~~~~~~~~~~~~~~~
-=== НЕ РЕДАКТИРУЙТЕ ЭТОТ ФАЙЛ! ===-

Путь: ...\2004 - The Best Of {20th Century Masters. The Christmas Collection} [B0002831-02]

1 -=- Stevie Wonder - The Best Of {20th Century Masters. The Christmas Collection}.flac -=- CDDA (100%)

23498452
[свернуть]

Спектр частот

[свернуть]

Скачать Stevie Wonder - The Best Of Stevie Wonder {20th Century Masters. The Christmas Collection}



password: sergych
[свернуть]
My opinion of release: 10/10
__________________
TAIFUN.Wings of Soul

Вверх
3 пользователя(ей) сказали cпасибо:
Показать список поблагодаривших
Похожие темы
Тема Автор Раздел Ответов Последнее сообщение
Сборник Joe Cocker - The Best Of Joe Cocker {20th Century Masters. The Millennium Collection} sergych Blues Rock 0 07.08.2015 17:32
Сборник Styx - The Best Of Styx {20th Century Masters. The Millennium Collection} sergych Progressive Rock 0 05.08.2015 22:28
Сборник Aerosmith - The Best Of Aerosmith {20th Century Masters. The Millennium Collection} sergych Hard Rock 0 04.08.2015 22:49
Сборник Cher - The Best of Cher {20th Century Masters. The Millennium Collection} sergych Зарубежная Поп-Музыка 0 22.06.2014 10:36
Альбом Jackson 5 - The Best Of Jackson 5. 20th Century Masters The Christmas Collection sergych Зарубежная Поп-Музыка 0 12.12.2008 22:19


Метки
2004 , christmas , r'n'b , soul , stevie wonder , the best of stevie wonder {20th century masters. the christmas collection}

Опции темы

Ваши права в разделе
Вы не можете создавать новые темы
Вы не можете отвечать в темах
Вы не можете прикреплять вложения
Вы не можете редактировать свои сообщения

Быстрый переход



Текущее время: 02:56. Часовой пояс GMT +3.
Powered by vBulletin® Version 3.8.10
Copyright ©2000 - 2017, vBulletin Solutions, Inc. Перевод: zCarot
© 2008 - 2017 Taifun With Song
Яндекс.Метрика