TAIFUN With Song
Навигация
R&B Ссылки на музыку в этом стиле

А знаете ли Вы, что...
Почему Майкл Джексон получал половину доходов от продаж песен Beatles?
«В 1984 году на аукционе продавались издательские права на песни Beatles. Его выиграл Майкл Джексон, заплатив почти 50 миллионов долларов — больше, чем предлагал сам Пол Маккартни. С этого времени Джексон получал половину доходов от продаж Beatles (другую половину получали авторы песен, главным образом Маккартни). В 1995 году компания Sony выкупила у Джексона половину его прав, так что в последнее время он получал только четверть доходов.»
 
Опции темы

  #1
Старый 08.11.2015, 12:26
sergych
Координатор
Досье
 
Аватар для sergych
Релиз Mariah Carey - Daydream


1995 - Mariah Carey - Daydream




Исполнитель/Artist: Mariah Carey
Альбом/Album: Daydream
Год/Year: 1995
Жанр/Genre: R&B, soul, pop, dance-pop
Страна/Country: Япония
Рекорд-лейбл/Record label: Sony Music
Номер в каталоге/Catalogue #: SRCS 7821
Формат/Format: Free Lossless Audio Codec (*.flac)
Качество/Quality: Lossless
Тип рипа/RIP Type: image+.cue
Продолжительность/Length: 00:50:29
Источник/Source: Собственный рип
Размер/Size: 385.3 MB

Сканы в комплекте

Треклист

01. Fantasy [0:04:04.22]
02. Underneath The Stars [0:03:33.13]
03. One Sweet Day [0:04:42.50]
04. Open Arms [0:03:30.35]
05. Always Be My Baby [0:04:20.07]
06. I Am Free [0:03:09.50]
07. When I Saw You [0:04:24.48]
08. Long Ago [0:04:33.72]
09. Melt Away [0:03:42.35]
10. Forever [0:04:00.55]
11. Daydream Interlude (Fantasy Sweet Dub Mix) [0:03:04.60]
12. Looking In [0:03:36.63]
13. Fantasy (Def Club Mix) [0:03:44.60]
[свернуть]

youtube.com

[свернуть]

Исполнители/Performers

Mariah Carey – vocals, producer, arranger, crowd noise
Walter Afanasieff – producer, arranger, programming, synthesizer, bass, keyboard instruments, drum programming
Babyface – keyboards, background vocals
Nathan Morris, Shawn Stockman, Wanya Morris – writing, vocals
Manuel Seal – piano, writing
Dann Huff, Tristan Avakian – guitar
Jermaine Dupri – producer, arranger, lead and backup vocals
Loris Holland – organ, hammond organ
David Morales – bass, arranger, keyboards, programming, producer
Kelly Price, Melonie Daniels, Shanrae Price – crowd noise
Manuel Seal – producer, lead and backup vocals
Dan Shea – synthesizer, bass, keyboards, programming, moog synthesizer, drum programming, synthesizer bass
Steve Thornton – percussion
Terry Burrus – piano
Satoshi Tomiie – bass, keyboards, programming, synthesizer bass
[свернуть]

EAC лог

Exact Audio Copy V1.0 beta 3 from 29. August 2011

EAC extraction logfile from 19. October 2015, 23:52

Mariah Carey / Daydream

Used drive : ATAPI iHAS124 D Adapter: 0 ID: 2

Read mode : Secure
Utilize accurate stream : Yes
Defeat audio cache : Yes
Make use of C2 pointers : No

Read offset correction : 6
Overread into Lead-In and Lead-Out : No
Fill up missing offset samples with silence : Yes
Delete leading and trailing silent blocks : No
Null samples used in CRC calculations : Yes
Used interface : Installed external ASPI interface

Used output format : User Defined Encoder
Selected bitrate : 1024 kBit/s
Quality : High
Add ID3 tag : No
Command line compressor : C:\Program Files (x86)\Exact Audio Copy\Flac\flac.exe
Additional command line options : -6 -V -T "ARTIST=%artist%" -T "TITLE=%title%" -T "ALBUM=%albumtitle%" -T "DATE=%year%" -T "TRACKNUMBER=%tracknr%" -T "GENRE=%genre%" -T "COMMENT=%comment%" -T "BAND=%albuminterpret%" -T "COMPOSER=%composer%" %haslyrics%--tag-from-file=LYRICS="%lyricsfile%"%haslyrics% -T "DISCNUMBER=%cdnumber%" -T "TOTALDISCS=%totalcds%" -T "TOTALTRACKS=%numtracks%" %hascover%--picture="%coverfile%"%hascover% %source% -o %dest%


TOC of the extracted CD

Track | Start | Length | Start sector | End sector
---------------------------------------------------------
1 | 0:00.00 | 4:04.22 | 0 | 18321
2 | 4:04.22 | 3:33.13 | 18322 | 34309
3 | 7:37.35 | 4:42.50 | 34310 | 55509
4 | 12:20.10 | 3:30.35 | 55510 | 71294
5 | 15:50.45 | 4:20.07 | 71295 | 90801
6 | 20:10.52 | 3:09.50 | 90802 | 105026
7 | 23:20.27 | 4:24.48 | 105027 | 124874
8 | 27:45.00 | 4:33.72 | 124875 | 145421
9 | 32:18.72 | 3:42.35 | 145422 | 162106
10 | 36:01.32 | 4:00.55 | 162107 | 180161
11 | 40:02.12 | 3:04.60 | 180162 | 194021
12 | 43:06.72 | 3:36.63 | 194022 | 210284
13 | 46:43.60 | 3:44.60 | 210285 | 227144


Range status and errors

Selected range

Filename C:\mm\Mariah Carey\1995 - Daydream [SRCS 7821]\Mariah Carey - Daydream.wav

Peak level 98.1 %
Extraction speed 8.6 X
Range quality 100.0 %
Test CRC C09C98B6
Copy CRC C09C98B6
Copy OK

No errors occurred


AccurateRip summary

Track 1 accurately ripped (confidence 10) [442FBDE9] (AR v2)
Track 2 accurately ripped (confidence 10) [CC7B589A] (AR v2)
Track 3 accurately ripped (confidence 10) [08159854] (AR v2)
Track 4 accurately ripped (confidence 9) [EE63C3B9] (AR v2)
Track 5 accurately ripped (confidence 11) [FF139A0A] (AR v2)
Track 6 accurately ripped (confidence 9) [5690C8D9] (AR v2)
Track 7 accurately ripped (confidence 10) [8CEA0372] (AR v2)
Track 8 accurately ripped (confidence 9) [F0129E21] (AR v2)
Track 9 accurately ripped (confidence 9) [915AC683] (AR v2)
Track 10 accurately ripped (confidence 10) [54C8ACC5] (AR v2)
Track 11 accurately ripped (confidence 9) [FA7FD7A8] (AR v2)
Track 12 accurately ripped (confidence 9) [7FF11B22] (AR v2)
Track 13 accurately ripped (confidence 9) [E0DB3681] (AR v2)

All tracks accurately ripped

End of status report
[свернуть]

Файл CUE

REM GENRE R&B
REM DATE 1995
REM DISCID A80BD40D
REM COMMENT "ExactAudioCopy v1.0b3"
PERFORMER "Mariah Carey"
TITLE "Daydream"
FILE "Mariah Carey - Daydream.flac" WAVE
TRACK 01 AUDIO
TITLE "Fantasy"
PERFORMER "Mariah Carey"
INDEX 01 00:00:00
TRACK 02 AUDIO
TITLE "Underneath The Stars"
PERFORMER "Mariah Carey"
INDEX 01 04:04:22
TRACK 03 AUDIO
TITLE "One Sweet Day"
PERFORMER "Mariah Carey"
INDEX 01 07:37:35
TRACK 04 AUDIO
TITLE "Open Arms"
PERFORMER "Mariah Carey"
INDEX 00 12:19:10
INDEX 01 12:20:10
TRACK 05 AUDIO
TITLE "Always Be My Baby"
PERFORMER "Mariah Carey"
INDEX 01 15:50:45
TRACK 06 AUDIO
TITLE "I Am Free"
PERFORMER "Mariah Carey"
INDEX 00 20:09:30
INDEX 01 20:10:52
TRACK 07 AUDIO
TITLE "When I Saw You"
PERFORMER "Mariah Carey"
INDEX 00 23:19:22
INDEX 01 23:20:27
TRACK 08 AUDIO
TITLE "Long Ago"
PERFORMER "Mariah Carey"
INDEX 01 27:45:00
TRACK 09 AUDIO
TITLE "Melt Away"
PERFORMER "Mariah Carey"
INDEX 00 32:17:47
INDEX 01 32:18:72
TRACK 10 AUDIO
TITLE "Forever"
PERFORMER "Mariah Carey"
INDEX 00 35:59:50
INDEX 01 36:01:32
TRACK 11 AUDIO
TITLE "Daydream Interlude (Fantasy Sweet Dub Mix)"
PERFORMER "Mariah Carey"
INDEX 01 40:02:12
TRACK 12 AUDIO
TITLE "Looking In"
PERFORMER "Mariah Carey"
INDEX 01 43:06:72
TRACK 13 AUDIO
TITLE "Fantasy (Def Club Mix)"
PERFORMER "Mariah Carey"
INDEX 01 46:43:60
[свернуть]

Лог проверки качества

AUDIOCHECKER v2.0 beta (build 457) - by Dester -
~~~~~~~~~~~~~~~~~~~~~~~~~~~~~~~~~~
-=== НЕ РЕДАКТИРУЙТЕ ЭТОТ ФАЙЛ! ===-

Путь: ...\1995 - Daydream [SRCS 7821]

1 -=- Mariah Carey - Daydream.flac -=- CDDA (100%)

100119972
[свернуть]

Спектр частот

[свернуть]

Скачать Mariah Carey - Daydream



password: sergych
[свернуть]
My opinion of release: 10/10
__________________
TAIFUN.Wings of Soul

Вверх
6 пользователя(ей) сказали cпасибо:
Показать список поблагодаривших
Похожие темы
Тема Автор Раздел Ответов Последнее сообщение
Сборник Mariah Carey - #1's sergych R&B 1 14.10.2017 23:35
Альбом Mariah Carey - Butterfly sergych R&B 1 13.10.2017 19:07
Альбом Mariah Carey - Music Box sergych R&B 0 21.10.2015 23:26
Альбом Mariah Carey - Mariah Carey sergych R&B 0 17.09.2015 20:37
Альбом Mariah Carey - E=MC2 LUСIAN R&B 0 20.04.2008 00:25


Метки
1995 , dance-pop , daydream , mariah carey , pop , r&b , soul

Опции темы

Ваши права в разделе
Вы не можете создавать новые темы
Вы не можете отвечать в темах
Вы не можете прикреплять вложения
Вы не можете редактировать свои сообщения

Быстрый переход



Текущее время: 22:25. Часовой пояс GMT +3.
Powered by vBulletin® Version 3.8.10
Copyright ©2000 - 2017, vBulletin Solutions, Inc. Перевод: zCarot
© 2008 - 2017 Taifun With Song
Яндекс.Метрика