TAIFUN With Song
Вернуться   TAIFUN With Song > Music (обменник) > Другие направления музыки > Саундтреки
Расширенный поиск
Саундтреки Саундтреки к фильмам, анимации, играм, сериалам

А знаете ли Вы, что...
Хобби Альберта Эйнштейна!
«Эйнштейн любил играть на скрипке и однажды принял участие в благотворительном концерте в Германии.»
 
Опции темы

  #1
Старый 15.05.2015, 19:23
sergych
Координатор
Досье
 
Аватар для sergych
Релиз Various Artists - The Bodyguard: Original Soundtrack Album


1992 - Various Artists - The Bodyguard: Original Soundtrack Album




Исполнитель/Artist: Various Artists
Альбом/Album: The Bodyguard: Original Soundtrack Album
Год/Year: 1992
Жанр/Genre: soundtracks
Страна/Country: Соединённые Штаты
Рекорд-лейбл/Record label: Arista Records / Warner Bros.
Номер в каталоге/Catalogue #: 18699-2
Формат/Format: Free Lossless Audio Codec (*.flac)
Качество/Quality: Lossless
Тип рипа/RIP Type: image+.cue
Продолжительность/Length: 00:52:44
Источник/Source: Собственный рип
Размер/Size: 373.2 MB

Сканы в комплекте

Треклист

01. Whitney Houston / I Will Always Love You [0:04:30.65]
02. Whitney Houston / I Have Nothing [0:04:50.03]
03. Whitney Houston / I'm Every Woman [0:04:46.45]
04. Whitney Houston / Run To You [0:04:24.30]
05. Whitney Houston / Queen Of The Night [0:03:08.42]
06. Whitney Houston / Jesus Loves Me [0:05:12.40]
07. Kenny G & Aaron Neville / Even If My Heart Would Break [0:04:58.00]
08. Lisa Stansfield / Someday (I'm Coming Back) [0:04:58.38]
09. The S.O.U.L. S.Y.S.T.E.M. / It's Gonna Be A Lovely Day [0:04:51.25]
10. Curtis Stingers / (What's So Funny 'Bout) Peace, Love And Understanding [0:04:05.25]
11. Alan Silvestri / Theme From The Bodyguard [0:02:43.45]
12. Joe Cocker (Feat. Sass Jordan) / Trust In Me [0:04:13.35]
[свернуть]

youtube.com

[свернуть]

EAC лог

Exact Audio Copy V1.0 beta 3 from 29. August 2011

EAC extraction logfile from 15. May 2015, 20:06

Various Artists / The Bodyguard {Original Soundtrack Album}

Used drive : ATAPI iHAS124 D Adapter: 0 ID: 2

Read mode : Secure
Utilize accurate stream : Yes
Defeat audio cache : Yes
Make use of C2 pointers : No

Read offset correction : 6
Overread into Lead-In and Lead-Out : No
Fill up missing offset samples with silence : Yes
Delete leading and trailing silent blocks : No
Null samples used in CRC calculations : Yes
Used interface : Installed external ASPI interface

Used output format : User Defined Encoder
Selected bitrate : 1024 kBit/s
Quality : High
Add ID3 tag : No
Command line compressor : C:\Program Files (x86)\Exact Audio Copy\Flac\flac.exe
Additional command line options : -6 -V -T "ARTIST=%artist%" -T "TITLE=%title%" -T "ALBUM=%albumtitle%" -T "DATE=%year%" -T "TRACKNUMBER=%tracknr%" -T "GENRE=%genre%" -T "COMMENT=%comment%" -T "BAND=%albuminterpret%" -T "COMPOSER=%composer%" %haslyrics%--tag-from-file=LYRICS="%lyricsfile%"%haslyrics% -T "DISCNUMBER=%cdnumber%" -T "TOTALDISCS=%totalcds%" -T "TOTALTRACKS=%numtracks%" %hascover%--picture="%coverfile%"%hascover% %source% -o %dest%


TOC of the extracted CD

Track | Start | Length | Start sector | End sector
---------------------------------------------------------
1 | 0:00.00 | 4:30.65 | 0 | 20314
2 | 4:30.65 | 4:50.03 | 20315 | 42067
3 | 9:20.68 | 4:46.45 | 42068 | 63562
4 | 14:07.38 | 4:24.30 | 63563 | 83392
5 | 18:31.68 | 3:08.42 | 83393 | 97534
6 | 21:40.35 | 5:12.40 | 97535 | 120974
7 | 26:53.00 | 4:58.00 | 120975 | 143324
8 | 31:51.00 | 4:58.38 | 143325 | 165712
9 | 36:49.38 | 4:51.25 | 165713 | 187562
10 | 41:40.63 | 4:05.25 | 187563 | 205962
11 | 45:46.13 | 2:43.45 | 205963 | 218232
12 | 48:29.58 | 4:13.35 | 218233 | 237242


Range status and errors

Selected range

Filename C:\mm\VA\1992 - The Bodyguard. Original Soundtrack Album [18699-2]\Various Artists - The Bodyguard {Original Soundtrack Album}.wav

Peak level 100.0 %
Extraction speed 9.4 X
Range quality 100.0 %
Test CRC F8F4277E
Copy CRC F8F4277E
Copy OK

No errors occurred


AccurateRip summary

Track 1 accurately ripped (confidence 41) [4AD6BB12] (AR v2)
Track 2 accurately ripped (confidence 41) [B2C88AAC] (AR v2)
Track 3 accurately ripped (confidence 41) [813C6F53] (AR v2)
Track 4 accurately ripped (confidence 42) [2A89EBD3] (AR v2)
Track 5 accurately ripped (confidence 41) [27A81287] (AR v2)
Track 6 accurately ripped (confidence 41) [0166C29D] (AR v2)
Track 7 accurately ripped (confidence 40) [7AC75874] (AR v2)
Track 8 accurately ripped (confidence 41) [40D1547C] (AR v2)
Track 9 accurately ripped (confidence 41) [E919F25A] (AR v2)
Track 10 accurately ripped (confidence 41) [F7C7AEDF] (AR v2)
Track 11 accurately ripped (confidence 40) [E50B3784] (AR v2)
Track 12 accurately ripped (confidence 40) [D7B99309] (AR v2)

All tracks accurately ripped

End of status report
[свернуть]

Файл CUE

REM GENRE Soundtrack
REM DATE 1992
REM DISCID 870C5B0C
REM COMMENT "ExactAudioCopy v1.0b3"
PERFORMER "Various Artists"
TITLE "The Bodyguard {Original Soundtrack Album}"
FILE "Various Artists - The Bodyguard {Original Soundtrack Album}.flac" WAVE
TRACK 01 AUDIO
TITLE "I Will Always Love You"
PERFORMER "Whitney Houston"
INDEX 01 00:00:00
TRACK 02 AUDIO
TITLE "I Have Nothing"
PERFORMER "Whitney Houston"
INDEX 01 04:30:65
TRACK 03 AUDIO
TITLE "I'm Every Woman"
PERFORMER "Whitney Houston"
INDEX 00 09:20:15
INDEX 01 09:20:68
TRACK 04 AUDIO
TITLE "Run To You"
PERFORMER "Whitney Houston"
INDEX 00 14:06:13
INDEX 01 14:07:38
TRACK 05 AUDIO
TITLE "Queen Of The Night"
PERFORMER "Whitney Houston"
INDEX 01 18:31:68
TRACK 06 AUDIO
TITLE "Jesus Loves Me"
PERFORMER "Whitney Houston"
INDEX 01 21:40:35
TRACK 07 AUDIO
TITLE "Even If My Heart Would Break"
PERFORMER "Kenny G & Aaron Neville"
INDEX 01 26:53:00
TRACK 08 AUDIO
TITLE "Someday (I'm Coming Back)"
PERFORMER "Lisa Stansfield"
INDEX 00 31:50:63
INDEX 01 31:51:00
TRACK 09 AUDIO
TITLE "It's Gonna Be A Lovely Day"
PERFORMER "The S.O.U.L. S.Y.S.T.E.M."
INDEX 00 36:48:50
INDEX 01 36:49:38
TRACK 10 AUDIO
TITLE "(What's So Funny 'Bout) Peace, Love And Understanding"
PERFORMER "Curtis Stingers"
INDEX 00 41:40:00
INDEX 01 41:40:63
TRACK 11 AUDIO
TITLE "Theme From The Bodyguard"
PERFORMER "Alan Silvestri"
INDEX 01 45:46:13
TRACK 12 AUDIO
TITLE "Trust In Me"
PERFORMER "Joe Cocker (Feat. Sass Jordan)"
INDEX 01 48:29:58
[свернуть]

Лог проверки качества

AUDIOCHECKER v2.0 beta (build 457) - by Dester - [Ссылки могут видеть только зарегистрированные пользователи. ]
~~~~~~~~~~~~~~~~~~~~~~~~~~~~~~~~~~
-=== НЕ РЕДАКТИРУЙТЕ ЭТОТ ФАЙЛ! ===-

Путь: ...\1992 - The Bodyguard. Original Soundtrack Album [18699-2]

1 -=- Various Artists - The Bodyguard {Original Soundtrack Album}.flac -=- CDDA (100%)

126490532
[свернуть]

Спектр частот

[свернуть]

Скачать Various Artists - The Bodyguard: Original Soundtrack Album

[Ссылки могут видеть только зарегистрированные пользователи. ]

password: sergych
[свернуть]
My opinion of release: 10/10
__________________
TAIFUN.Wings of Soul

Вверх
Похожие темы
Тема Автор Раздел Ответов Последнее сообщение
Сборник Fleetwood Mac - 3 Original Album Classics sergych Blues Rock 0 17.08.2013 19:29
Сет Fleetwood Mac - Original Album Series sergych Blues Rock 0 25.06.2013 19:27
Сет Tom Waits - Original Album Series aheron Jazz и Blues 1 06.06.2013 10:06
Альбом Buddy DeFranco And The Oscar Peterson Quartet - Original Long Album #4 sergych Jazz и Blues 0 15.03.2013 19:30
Сборник Anastacia - Original Album Classics(3Cd) PUPOKIN Зарубежная Поп-Музыка 0 22.01.2012 10:56


Метки
1992 , soundtracks , the bodyguard: original soundtrack album , various artists , whitney houston

Опции темы

Ваши права в разделе
Вы не можете создавать новые темы
Вы не можете отвечать в темах
Вы не можете прикреплять вложения
Вы не можете редактировать свои сообщения

Быстрый переход



Текущее время: 06:45. Часовой пояс GMT +3.
Powered by vBulletin® Version 3.8.7
Copyright ©2000 - 2017, vBulletin Solutions, Inc. Перевод: zCarot
© 2008 - 2017 Taifun With Song
Яндекс.Метрика