TAIFUN With Song
Вернуться   TAIFUN With Song > Music (обменник) > Другие направления музыки > Саундтреки
Расширенный поиск
Саундтреки Саундтреки к фильмам, анимации, играм, сериалам

А знаете ли Вы, что...
Какой музыкант однажды спел о том, что забыл слова этой песни?
«Однажды на концерте во Франции солист исландской группы Sigur Rós Йонси забыл текст песни. Не остановившись, он сымпровизировал под ту же музыку: «Чёрт, я забыл слова. Но это ничего. Потому что я во Франции, где никто не поймёт».»
 
Опции темы

  #1
Старый 14.05.2015, 19:30
sergych
Координатор
Досье
 
Аватар для sergych
Релиз Cirque Du Soleil - Viva Elvis: The Album


2010 - Cirque Du Soleil - Viva Elvis: The Album




Исполнитель/Artist: Cirque Du Soleil
Альбом/Album: Viva Elvis: The Album
Год/Year: 2010
Жанр/Genre: rock'n'roll
Страна/Country: Европа
Рекорд-лейбл/Record label: Sony Music
Номер в каталоге/Catalogue #: 88697767672
Формат/Format: Free Lossless Audio Codec (*.flac)
Качество/Quality: Lossless
Тип рипа/RIP Type: image+.cue
Продолжительность/Length: 00:42:32
Источник/Source: Собственный рип
Размер/Size: 341 MB

Сканы в комплекте

Треклист

01. Opening [0:02:11.16]
02. Blue Suede Shoes [0:03:11.58]
03. That's All Right [0:04:41.33]
04. Heartbreak Hotel [0:04:54.71]
05. Love Me Tender [0:04:13.33]
06. King Creole [0:04:26.40]
07. Bossa Nova Baby [0:03:07.11]
08. Burning Love [0:04:15.63]
09. Memories [0:00:54.56]
10. Can't Help Falling In Love [0:04:39.47]
11. You'll Never Walk Alone (Piano Interlude) [0:01:27.48]
12. Suspicious Minds [0:04:26.70]
[свернуть]

youtube.com

[свернуть]

EAC лог

Exact Audio Copy V1.0 beta 3 from 29. August 2011

EAC extraction logfile from 14. May 2015, 19:19

Elvis Presley / Viva Elvis: The Album

Used drive : ATAPI iHAS124 D Adapter: 0 ID: 2

Read mode : Secure
Utilize accurate stream : Yes
Defeat audio cache : Yes
Make use of C2 pointers : No

Read offset correction : 6
Overread into Lead-In and Lead-Out : No
Fill up missing offset samples with silence : Yes
Delete leading and trailing silent blocks : No
Null samples used in CRC calculations : Yes
Used interface : Installed external ASPI interface

Used output format : User Defined Encoder
Selected bitrate : 1024 kBit/s
Quality : High
Add ID3 tag : No
Command line compressor : C:\Program Files (x86)\Exact Audio Copy\Flac\flac.exe
Additional command line options : -6 -V -T "ARTIST=%artist%" -T "TITLE=%title%" -T "ALBUM=%albumtitle%" -T "DATE=%year%" -T "TRACKNUMBER=%tracknr%" -T "GENRE=%genre%" -T "COMMENT=%comment%" -T "BAND=%albuminterpret%" -T "COMPOSER=%composer%" %haslyrics%--tag-from-file=LYRICS="%lyricsfile%"%haslyrics% -T "DISCNUMBER=%cdnumber%" -T "TOTALDISCS=%totalcds%" -T "TOTALTRACKS=%numtracks%" %hascover%--picture="%coverfile%"%hascover% %source% -o %dest%


TOC of the extracted CD

Track | Start | Length | Start sector | End sector
---------------------------------------------------------
1 | 0:00.00 | 2:11.16 | 0 | 9840
2 | 2:11.16 | 3:11.58 | 9841 | 24223
3 | 5:22.74 | 4:41.33 | 24224 | 45331
4 | 10:04.32 | 4:54.71 | 45332 | 67452
5 | 14:59.28 | 4:13.33 | 67453 | 86460
6 | 19:12.61 | 4:26.40 | 86461 | 106450
7 | 23:39.26 | 3:07.11 | 106451 | 120486
8 | 26:46.37 | 4:15.63 | 120487 | 139674
9 | 31:02.25 | 0:54.56 | 139675 | 143780
10 | 31:57.06 | 4:39.47 | 143781 | 164752
11 | 36:36.53 | 1:27.48 | 164753 | 171325
12 | 38:04.26 | 4:26.70 | 171326 | 191345
13 | 45:03.21 | 6:40.23 | 202746 | 232768


Range status and errors

Selected range

Filename C:\mm\Cirque Du Soleil\2010 - Viva Elvis. The Album [88697767672]\Elvis Presley - Viva Elvis. The Album.wav

Peak level 100.0 %
Extraction speed 8.4 X
Range quality 100.0 %
Test CRC E1BDF893
Copy CRC E1BDF893
Copy OK

No errors occurred


AccurateRip summary

Track 1 accurately ripped (confidence 11) [BBC0D806] (AR v2)
Track 2 accurately ripped (confidence 11) [5D4B666B] (AR v2)
Track 3 accurately ripped (confidence 11) [3872AB40] (AR v2)
Track 4 accurately ripped (confidence 11) [0067D636] (AR v2)
Track 5 accurately ripped (confidence 11) [2A1995B5] (AR v2)
Track 6 accurately ripped (confidence 11) [078F357F] (AR v2)
Track 7 accurately ripped (confidence 11) [253204D4] (AR v2)
Track 8 accurately ripped (confidence 11) [F0CEACFB] (AR v2)
Track 9 accurately ripped (confidence 11) [FAE24881] (AR v2)
Track 10 accurately ripped (confidence 11) [2FA53882] (AR v2)
Track 11 accurately ripped (confidence 11) [7787AC54] (AR v2)
Track 12 accurately ripped (confidence 11) [B5CA277E] (AR v2)

All tracks accurately ripped

End of status report
[свернуть]

Файл CUE

REM GENRE "Rock & Roll"
REM DATE 2010
REM DISCID A50C1F0D
REM COMMENT "ExactAudioCopy v1.0b3"
PERFORMER "Elvis Presley"
TITLE "Viva Elvis: The Album"
FILE "Elvis Presley - Viva Elvis. The Album.flac" WAVE
TRACK 01 AUDIO
TITLE "Opening"
PERFORMER "Elvis Presley"
INDEX 01 00:00:00
TRACK 02 AUDIO
TITLE "Blue Suede Shoes"
PERFORMER "Elvis Presley"
INDEX 01 02:11:16
TRACK 03 AUDIO
TITLE "That's All Right"
PERFORMER "Elvis Presley"
INDEX 01 05:22:74
TRACK 04 AUDIO
TITLE "Heartbreak Hotel"
PERFORMER "Elvis Presley"
INDEX 01 10:04:32
TRACK 05 AUDIO
TITLE "Love Me Tender"
PERFORMER "Elvis Presley"
INDEX 01 14:59:28
TRACK 06 AUDIO
TITLE "King Creole"
PERFORMER "Elvis Presley"
INDEX 01 19:12:61
TRACK 07 AUDIO
TITLE "Bossa Nova Baby"
PERFORMER "Elvis Presley"
INDEX 01 23:39:26
TRACK 08 AUDIO
TITLE "Burning Love"
PERFORMER "Elvis Presley"
INDEX 01 26:46:37
TRACK 09 AUDIO
TITLE "Memories"
PERFORMER "Elvis Presley"
INDEX 01 31:02:25
TRACK 10 AUDIO
TITLE "Can't Help Falling In Love"
PERFORMER "Elvis Presley"
INDEX 01 31:57:06
TRACK 11 AUDIO
TITLE "You'll Never Walk Alone (Piano Interlude)"
PERFORMER "Elvis Presley"
INDEX 01 36:36:53
TRACK 12 AUDIO
TITLE "Suspicious Minds"
PERFORMER "Elvis Presley"
INDEX 01 38:04:26
[свернуть]

Лог проверки качества

AUDIOCHECKER v2.0 beta (build 457) - by Dester - [Ссылки могут видеть только зарегистрированные пользователи. ]
~~~~~~~~~~~~~~~~~~~~~~~~~~~~~~~~~~
-=== НЕ РЕДАКТИРУЙТЕ ЭТОТ ФАЙЛ! ===-

Путь: ...\2010 - Viva Elvis. The Album [88697767672]

1 -=- Elvis Presley - Viva Elvis. The Album.flac -=- CDDA (100%)

255066228
[свернуть]

Спектр частот

[свернуть]

Скачать Cirque Du Soleil - Viva Elvis: The Album

[Ссылки могут видеть только зарегистрированные пользователи. ]

password: sergych
[свернуть]
My opinion of release: 10/10
__________________
TAIFUN.Wings of Soul

Вверх
Похожие темы
Тема Автор Раздел Ответов Последнее сообщение
Сборник Cirque Du Soleil - Le Best of Cirque du Soleil sergych Саундтреки 0 14.05.2015 18:57
Саундтрек Cirque Du Soleil - Mystere: Live in Las Vegas sergych Саундтреки 0 13.05.2015 20:35
Альбом Cirque Du Soleil - Alegria sergych Саундтреки 0 25.10.2014 10:29
Cirque du Soleil: Сказочный мир / Cirque du Soleil: Worlds Away (2012) HDRip maxy666 Киномания 0 30.03.2013 21:35
Сборник Elvis Presley - Elvis' Greatest Jukebox Hits Alex1990 Rock`n`Roll 0 07.05.2008 12:34


Метки
2010 , cirque du soleil , rock'n'roll , viva elvis: the album

Опции темы

Ваши права в разделе
Вы не можете создавать новые темы
Вы не можете отвечать в темах
Вы не можете прикреплять вложения
Вы не можете редактировать свои сообщения

Быстрый переход



Текущее время: 05:32. Часовой пояс GMT +3.
Powered by vBulletin® Version 3.8.7
Copyright ©2000 - 2017, vBulletin Solutions, Inc. Перевод: zCarot
© 2008 - 2017 Taifun With Song
Яндекс.Метрика