TAIFUN With Song
Вернуться   TAIFUN With Song > Music (обменник) > Другие направления музыки > Саундтреки
Расширенный поиск
Саундтреки Саундтреки к фильмам, анимации, играм, сериалам

А знаете ли Вы, что...
Горький и Шаляпин пробовались в хор!
«Шаляпин и Горький практически в одно и то же время пробовались в хор. Горького взяли, Шаляпина нет.»
 
Опции темы

  #1
Старый 14.05.2015, 18:57
sergych
Координатор
Досье
 
Аватар для sergych
Релиз Cirque Du Soleil - Le Best of Cirque du Soleil


2004 - Cirque du Soleil - Le Best of Cirque du Soleil




Исполнитель/Artist: Cirque du Soleil
Альбом/Album: Le Best of Cirque du Soleil
Год/Year: 2004
Жанр/Genre: soundtracks
Страна/Country: Канада
Рекорд-лейбл/Record label: Cirque du Soleil Musique
Номер в каталоге/Catalogue #: CDSMC 20022-2
Формат/Format: Free Lossless Audio Codec (*.flac)
Качество/Quality: Lossless
Тип рипа/RIP Type: image+.cue
Продолжительность/Length: 00:57:07
Источник/Source: Собственный рип
Размер/Size: 399 MB

Сканы в комплекте

Треклист

01. Éqypte (From "Mystère") [0:04:27.19]
02. Alegría (From "Alegría") [0:05:43.08]
03. Pokinoï (From "Saltimbanco") [0:04:43.10]
04. Querer (From "Alegría") [0:04:35.12]
05. Kumbalawé (From "Saltimbanco") [0:04:39.73]
06. Ombra (From "Dralion") [0:05:42.60]
07. Réveil (From "Quidam") [0:03:23.07]
08. Nostalgie (From "O") [0:04:07.00]
09. Vocea (From "Varekai") [0:05:00.70]
10. Stella Errans (From "Dralion") [0:04:34.55]
11. Gamelan (From "O") [0:05:43.70]
12. Liama (From "La Nouba") [0:04:25.37]
[свернуть]

youtube.com

[свернуть]

EAC лог

Exact Audio Copy V1.0 beta 3 from 29. August 2011

EAC extraction logfile from 13. May 2015, 20:24

Cirque du Soleil / Le Best Of Cirque du Soleil

Used drive : ATAPI iHAS124 D Adapter: 0 ID: 2

Read mode : Secure
Utilize accurate stream : Yes
Defeat audio cache : Yes
Make use of C2 pointers : No

Read offset correction : 6
Overread into Lead-In and Lead-Out : No
Fill up missing offset samples with silence : Yes
Delete leading and trailing silent blocks : No
Null samples used in CRC calculations : Yes
Used interface : Installed external ASPI interface

Used output format : User Defined Encoder
Selected bitrate : 1024 kBit/s
Quality : High
Add ID3 tag : No
Command line compressor : C:\Program Files (x86)\Exact Audio Copy\Flac\flac.exe
Additional command line options : -6 -V -T "ARTIST=%artist%" -T "TITLE=%title%" -T "ALBUM=%albumtitle%" -T "DATE=%year%" -T "TRACKNUMBER=%tracknr%" -T "GENRE=%genre%" -T "COMMENT=%comment%" -T "BAND=%albuminterpret%" -T "COMPOSER=%composer%" %haslyrics%--tag-from-file=LYRICS="%lyricsfile%"%haslyrics% -T "DISCNUMBER=%cdnumber%" -T "TOTALDISCS=%totalcds%" -T "TOTALTRACKS=%numtracks%" %hascover%--picture="%coverfile%"%hascover% %source% -o %dest%


TOC of the extracted CD

Track | Start | Length | Start sector | End sector
---------------------------------------------------------
1 | 0:00.00 | 4:27.19 | 0 | 20043
2 | 4:27.19 | 5:43.08 | 20044 | 45776
3 | 10:10.27 | 4:43.10 | 45777 | 67011
4 | 14:53.37 | 4:35.12 | 67012 | 87648
5 | 19:28.49 | 4:39.73 | 87649 | 108646
6 | 24:08.47 | 5:42.60 | 108647 | 134356
7 | 29:51.32 | 3:23.07 | 134357 | 149588
8 | 33:14.39 | 4:07.00 | 149589 | 168113
9 | 37:21.39 | 5:00.70 | 168114 | 190683
10 | 42:22.34 | 4:34.55 | 190684 | 211288
11 | 46:57.14 | 5:43.70 | 211289 | 237083
12 | 52:41.09 | 4:25.37 | 237084 | 256995


Range status and errors

Selected range

Filename C:\mm\Cirque Du Soleil\2004 - Le Best Of Cirque Du Soleil [CDSMC 20022-2]\Cirque du Soleil - Le Best of Cirque du Soleil.wav

Peak level 100.0 %
Extraction speed 8.6 X
Range quality 99.9 %
Test CRC 9D7293D2
Copy CRC 9D7293D2
Copy OK

No errors occurred


AccurateRip summary

Track 1 accurately ripped (confidence 25) [38C39829] (AR v2)
Track 2 accurately ripped (confidence 25) [8AE91310] (AR v2)
Track 3 accurately ripped (confidence 25) [E921F120] (AR v2)
Track 4 accurately ripped (confidence 25) [99F02CFA] (AR v2)
Track 5 accurately ripped (confidence 25) [D20289C2] (AR v2)
Track 6 accurately ripped (confidence 24) [6044B747] (AR v2)
Track 7 accurately ripped (confidence 25) [2753D2E2] (AR v2)
Track 8 accurately ripped (confidence 25) [B3D6A9F8] (AR v2)
Track 9 accurately ripped (confidence 25) [AC02C04C] (AR v2)
Track 10 accurately ripped (confidence 25) [DD5AC650] (AR v2)
Track 11 accurately ripped (confidence 25) [580E688F] (AR v2)
Track 12 accurately ripped (confidence 20) [E301EBB9] (AR v2)

All tracks accurately ripped

End of status report
[свернуть]

Файл CUE

REM GENRE Soundtrack
REM DATE 2004
REM DISCID AD0D620C
REM COMMENT "ExactAudioCopy v1.0b3"
PERFORMER "Cirque du Soleil"
TITLE "Le Best Of Cirque du Soleil"
FILE "Cirque du Soleil - Le Best of Cirque du Soleil.flac" WAVE
TRACK 01 AUDIO
TITLE "Eqypte (From Mystere)"
PERFORMER "Cirque du Soleil"
INDEX 01 00:00:00
TRACK 02 AUDIO
TITLE "Alegria (From Alegria)"
PERFORMER "Cirque du Soleil"
INDEX 01 04:27:19
TRACK 03 AUDIO
TITLE "Pokinoi (From Saltimbanco)"
PERFORMER "Cirque du Soleil"
INDEX 01 10:10:27
TRACK 04 AUDIO
TITLE "Querer (From Alegria)"
PERFORMER "Cirque du Soleil"
INDEX 01 14:53:37
TRACK 05 AUDIO
TITLE "Kumbalawe (From Saltimbanco)"
PERFORMER "Cirque du Soleil"
INDEX 01 19:28:49
TRACK 06 AUDIO
TITLE "Ombra (From Dralion)"
PERFORMER "Cirque du Soleil"
INDEX 01 24:08:47
TRACK 07 AUDIO
TITLE "Reveil (From Quidam)"
PERFORMER "Cirque du Soleil"
INDEX 01 29:51:32
TRACK 08 AUDIO
TITLE "Nostalgie (From ''O'')"
PERFORMER "Cirque du Soleil"
INDEX 01 33:14:39
TRACK 09 AUDIO
TITLE "Vocea (From Varekai)"
PERFORMER "Cirque du Soleil"
INDEX 01 37:21:39
TRACK 10 AUDIO
TITLE "Stella Errans (From Dralion)"
PERFORMER "Cirque du Soleil"
INDEX 01 42:22:34
TRACK 11 AUDIO
TITLE "Gamelan (From ''O'')"
PERFORMER "Cirque du Soleil"
INDEX 01 46:57:14
TRACK 12 AUDIO
TITLE "Liama (From La Nouba)"
PERFORMER "Cirque du Soleil"
INDEX 01 52:41:09
[свернуть]

Лог проверки качества

AUDIOCHECKER v2.0 beta (build 457) - by Dester -
~~~~~~~~~~~~~~~~~~~~~~~~~~~~~~~~~~
-=== НЕ РЕДАКТИРУЙТЕ ЭТОТ ФАЙЛ! ===-

Путь: ...\2004 - Le Best Of Cirque Du Soleil [CDSMC 20022-2]

1 -=- Cirque du Soleil - Le Best of Cirque du Soleil.flac -=- CDDA (100%)

117884404
[свернуть]

Спектр частот

[свернуть]

Скачать Cirque du Soleil - Le Best of Cirque du Soleil



password: sergych
[свернуть]
My opinion of release: 10/10
__________________
TAIFUN.Wings of Soul

Вверх
Похожие темы
Тема Автор Раздел Ответов Последнее сообщение
Саундтрек Cirque Du Soleil - O sergych Саундтреки 0 02.02.2016 18:51
Саундтрек Cirque Du Soleil - Dralion sergych Саундтреки 0 05.12.2015 12:18
Саундтрек Cirque Du Soleil - Mystere: Live in Las Vegas sergych Саундтреки 0 13.05.2015 20:35
Альбом Cirque Du Soleil - Alegria sergych Саундтреки 0 25.10.2014 10:29
Cirque du Soleil: Сказочный мир / Cirque du Soleil: Worlds Away (2012) HDRip maxy666 Киномания 0 30.03.2013 21:35


Метки
2004 , cirque du soleil , le best of cirque du soleil , soundtracks

Опции темы

Ваши права в разделе
Вы не можете создавать новые темы
Вы не можете отвечать в темах
Вы не можете прикреплять вложения
Вы не можете редактировать свои сообщения

Быстрый переход



Текущее время: 02:24. Часовой пояс GMT +3.
Powered by vBulletin® Version 3.8.7
Copyright ©2000 - 2017, vBulletin Solutions, Inc. Перевод: zCarot
© 2008 - 2017 Taifun With Song
Яндекс.Метрика