TAIFUN With Song
Навигация
Вернуться   TAIFUN With Song > Music (обменник) > Другие направления музыки > Саундтреки
Расширенный поиск
Саундтреки Саундтреки к фильмам, анимации, играм, сериалам

А знаете ли Вы, что...
Какие предметы лежат в склепе Боба Марли?
«Знаменитый ямайский регги-музыкант Боб Марли завещал положить в свой посмертный склеп гитару «Les Paul», футбольный мяч, Библию и свёрток марихуаны.»
 
Опции темы

  #1
Старый 13.05.2015, 21:35
sergych
Координатор
Досье
 
Аватар для sergych
Релиз Cirque Du Soleil - Mystere: Live in Las Vegas


1996 - Cirque du Soleil - Mystere: Live in Las Vegas




Исполнитель/Artist: Cirque du Soleil
Альбом/Album: Mystere: Live in Las Vegas
Год/Year: 1996
Жанр/Genre: ballad
Страна/Country: Соединённые Штаты
Рекорд-лейбл/Record label: RCA Victor
Номер в каталоге/Catalogue #: 09026-68596-2
Формат/Format: Free Lossless Audio Codec (*.flac)
Качество/Quality: Lossless
Тип рипа/RIP Type: image+.cue
Продолжительность/Length: 00:54:38
Источник/Source: Собственный рип
Размер/Size: 371.6 MB

Сканы в комплекте

Треклист

01. Ouverture - Ramsani [0:04:16.45]
02. Misha [0:05:38.15]
03. Égypte [0:03:13.20]
04. Rondo - Double Face [0:05:10.05]
05. Ulysse [0:05:37.00]
06. Dome [0:02:45.17]
07. Kalimando [0:04:12.25]
08. Kunya Sobé [0:03:16.40]
09. En ville - Frisco [0:05:12.63]
10. Gambade [0:01:19.00]
11. High Bar [0:07:16.57]
12. Taiko [0:03:50.68]
13. Finale [0:02:48.57]
[свернуть]

youtube.com

[свернуть]

EAC лог

Exact Audio Copy V1.0 beta 3 from 29. August 2011

EAC extraction logfile from 13. May 2015, 20:00

Cirque du Soleil / Mystere Live in Las Vegas

Used drive : ATAPI iHAS124 D Adapter: 0 ID: 2

Read mode : Secure
Utilize accurate stream : Yes
Defeat audio cache : Yes
Make use of C2 pointers : No

Read offset correction : 6
Overread into Lead-In and Lead-Out : No
Fill up missing offset samples with silence : Yes
Delete leading and trailing silent blocks : No
Null samples used in CRC calculations : Yes
Used interface : Installed external ASPI interface

Used output format : User Defined Encoder
Selected bitrate : 1024 kBit/s
Quality : High
Add ID3 tag : No
Command line compressor : C:\Program Files (x86)\Exact Audio Copy\Flac\flac.exe
Additional command line options : -6 -V -T "ARTIST=%artist%" -T "TITLE=%title%" -T "ALBUM=%albumtitle%" -T "DATE=%year%" -T "TRACKNUMBER=%tracknr%" -T "GENRE=%genre%" -T "COMMENT=%comment%" -T "BAND=%albuminterpret%" -T "COMPOSER=%composer%" %haslyrics%--tag-from-file=LYRICS="%lyricsfile%"%haslyrics% -T "DISCNUMBER=%cdnumber%" -T "TOTALDISCS=%totalcds%" -T "TOTALTRACKS=%numtracks%" %hascover%--picture="%coverfile%"%hascover% %source% -o %dest%


TOC of the extracted CD

Track | Start | Length | Start sector | End sector
---------------------------------------------------------
1 | 0:00.00 | 4:16.45 | 0 | 19244
2 | 4:16.45 | 5:38.15 | 19245 | 44609
3 | 9:54.60 | 3:13.20 | 44610 | 59104
4 | 13:08.05 | 5:10.05 | 59105 | 82359
5 | 18:18.10 | 5:37.00 | 82360 | 107634
6 | 23:55.10 | 2:45.17 | 107635 | 120026
7 | 26:40.27 | 4:12.25 | 120027 | 138951
8 | 30:52.52 | 3:16.40 | 138952 | 153691
9 | 34:09.17 | 5:12.63 | 153692 | 177154
10 | 39:22.05 | 1:19.00 | 177155 | 183079
11 | 40:41.05 | 7:16.57 | 183080 | 215836
12 | 47:57.62 | 3:50.68 | 215837 | 233154
13 | 51:48.55 | 2:48.57 | 233155 | 245811


Range status and errors

Selected range

Filename C:\mm\Cirque Du Soleil\1996 - Mystere Live in Las Vegas [09026-68596-2]\Cirque du Soleil - Mystere Live in Las Vegas.wav

Peak level 100.0 %
Extraction speed 8.7 X
Range quality 99.9 %
Test CRC AFAB2DB0
Copy CRC AFAB2DB0
Copy OK

No errors occurred


AccurateRip summary

Track 1 accurately ripped (confidence 21) [9B148172] (AR v2)
Track 2 accurately ripped (confidence 21) [3325A7A9] (AR v2)
Track 3 accurately ripped (confidence 21) [3C169284] (AR v2)
Track 4 accurately ripped (confidence 21) [36E92556] (AR v2)
Track 5 accurately ripped (confidence 21) [1D14B1CA] (AR v2)
Track 6 accurately ripped (confidence 21) [15044871] (AR v2)
Track 7 accurately ripped (confidence 21) [6943796E] (AR v2)
Track 8 accurately ripped (confidence 21) [46854899] (AR v2)
Track 9 accurately ripped (confidence 21) [35705054] (AR v2)
Track 10 accurately ripped (confidence 21) [459C24E6] (AR v2)
Track 11 accurately ripped (confidence 21) [A210E521] (AR v2)
Track 12 accurately ripped (confidence 21) [F491D289] (AR v2)
Track 13 accurately ripped (confidence 19) [66393113] (AR v2)

All tracks accurately ripped

End of status report
[свернуть]

Файл CUE

REM GENRE Soundtrack
REM DATE 1996
REM DISCID A40CCD0D
REM COMMENT "ExactAudioCopy v1.0b3"
PERFORMER "Cirque du Soleil"
TITLE "Mystere Live in Las Vegas"
FILE "Cirque du Soleil - Mystere Live in Las Vegas.flac" WAVE
TRACK 01 AUDIO
TITLE "Ouverture - Ramsani"
PERFORMER "Cirque du Soleil"
INDEX 01 00:00:00
TRACK 02 AUDIO
TITLE "Misha"
PERFORMER "Cirque du Soleil"
INDEX 01 04:16:45
TRACK 03 AUDIO
TITLE "Egypte"
PERFORMER "Cirque du Soleil"
INDEX 01 09:54:60
TRACK 04 AUDIO
TITLE "Rondo - Double Face"
PERFORMER "Cirque du Soleil"
INDEX 01 13:08:05
TRACK 05 AUDIO
TITLE "Ulysse"
PERFORMER "Cirque du Soleil"
INDEX 01 18:18:10
TRACK 06 AUDIO
TITLE "Dome"
PERFORMER "Cirque du Soleil"
INDEX 01 23:55:10
TRACK 07 AUDIO
TITLE "Kalimando"
PERFORMER "Cirque du Soleil"
INDEX 01 26:40:27
TRACK 08 AUDIO
TITLE "Kunya Sobe"
PERFORMER "Cirque du Soleil"
INDEX 01 30:52:52
TRACK 09 AUDIO
TITLE "En ville - Frisco"
PERFORMER "Cirque du Soleil"
INDEX 01 34:09:17
TRACK 10 AUDIO
TITLE "Gambade"
PERFORMER "Cirque du Soleil"
INDEX 01 39:22:05
TRACK 11 AUDIO
TITLE "High Bar"
PERFORMER "Cirque du Soleil"
INDEX 01 40:41:05
TRACK 12 AUDIO
TITLE "Taiko"
PERFORMER "Cirque du Soleil"
INDEX 01 47:57:62
TRACK 13 AUDIO
TITLE "Finale"
PERFORMER "Cirque du Soleil"
INDEX 01 51:48:55
[свернуть]

Лог проверки качества

AUDIOCHECKER v2.0 beta (build 457) - by Dester -
~~~~~~~~~~~~~~~~~~~~~~~~~~~~~~~~~~
-=== НЕ РЕДАКТИРУЙТЕ ЭТОТ ФАЙЛ! ===-

Путь: ...\1996 - Mystere Live in Las Vegas [09026-68596-2]

1 -=- Cirque du Soleil - Mystere Live in Las Vegas.flac -=- CDDA (100%)

228937124
[свернуть]

Спектр частот

[свернуть]

Скачать Cirque du Soleil - Mystere: Live in Las Vegas



password: sergych
[свернуть]
My opinion of release: 8/10

Release info RInfo

Live album by René Dupéré & Benoît Jutras
__________________
TAIFUN.Wings of Soul

Вверх
Похожие темы
Тема Автор Раздел Ответов Последнее сообщение
Саундтрек Cirque Du Soleil - O sergych Саундтреки 0 02.02.2016 18:51
Саундтрек Cirque Du Soleil - Dralion sergych Саундтреки 0 05.12.2015 12:18
Сборник Cirque Du Soleil - Le Best of Cirque du Soleil sergych Саундтреки 0 14.05.2015 19:57
Альбом Cirque Du Soleil - Alegria sergych Саундтреки 0 25.10.2014 10:29
Cirque du Soleil: Сказочный мир / Cirque du Soleil: Worlds Away (2012) HDRip maxy666 Киномания 0 30.03.2013 20:35


Метки
2006 , ballad , cirque du soleil , mystere: live in las vegas

Опции темы

Ваши права в разделе
Вы не можете создавать новые темы
Вы не можете отвечать в темах
Вы не можете прикреплять вложения
Вы не можете редактировать свои сообщения

Быстрый переход



Текущее время: 23:17. Часовой пояс GMT +3.
Powered by vBulletin® Version 3.8.10
Copyright ©2000 - 2017, vBulletin Solutions, Inc. Перевод: zCarot
© 2008 - 2017 Taifun With Song
Яндекс.Метрика