TAIFUN With Song
Instrumental Релизы. Инструментальная музыка.

А знаете ли Вы, что...
Какой император наказывал офицеров прослушиванием оперы?
«Император Николай I не любил музыку и в качестве наказания для офицеров предоставлял им выбор между гауптвахтой и прослушиванием опер Глинки.»
 
Опции темы

  #1
Старый 18.04.2015, 19:14
sergych
Координатор
Досье
 
Аватар для sergych
Релиз Russ Conway - Time To Celebrate


1959(2010) - Russ Conway - Time To Celebrate




Исполнитель/Artist: Russ Conway
Альбом/Album: Time To Celebrate
Год/Year: 1959
Ремастеринг/Remaster: 2010
Жанр/Genre: instrumental pop
Страна/Country: Нидерланды
Рекорд-лейбл/Record label: Hallmark
Номер в каталоге/Catalogue #: 709852
Формат/Format: Free Lossless Audio Codec (*.flac)
Качество/Quality: Lossless
Тип рипа/RIP Type: image+.cue
Продолжительность/Length: 00:40:17
Источник/Source: Собственный рип
Размер/Size: 190.4 MB

Сканы в комплекте

Треклист

01. Time To Celebrate [0:02:41.08]
02. I’m Just Wild About Harry [0:02:08.33]
03. You Must Have Been A Beautiful Babby [0:02:25.24]
04. It’s A Long Way To Tipperary [0:01:54.21]
05. Down At The Old Bull And Bush [0:02:12.60]
06. Brown Eyes (Why Are You Blue?) [0:02:34.01]
07. I Like Mountain Music [0:01:58.48]
08. Cuddle Up A Little Closer [0:02:11.54]
09. Let The Great Big World Keep Turning [0:02:08.33]
10. Who’s Sorry Now? [0:02:24.58]
11. Yankee Doodle Boy [0:01:52.08]
12. When The Midnight Choo Choo Leaves For Alabama [0:02:16.04]
13. Wait Till The Sun Shines Nellie [0:01:51.43]
14. Singin' In The Rain [0:02:38.28]
15. If You’re Irish, Come Into The Parlour [0:01:39.44]
16. Sweet Rosie O’Grady [0:02:06.59]
17. Let The Rest Of The World Go By [0:02:26.70]
18. When Day Is Done [0:02:46.00]
[свернуть]

youtube.com

[свернуть]

EAC лог

Exact Audio Copy V1.0 beta 3 from 29. August 2011

EAC extraction logfile from 18. April 2015, 12:51

Russ Conway / Time To Celebrate

Used drive : ATAPI iHAS124 D Adapter: 0 ID: 2

Read mode : Secure
Utilize accurate stream : Yes
Defeat audio cache : Yes
Make use of C2 pointers : No

Read offset correction : 6
Overread into Lead-In and Lead-Out : No
Fill up missing offset samples with silence : Yes
Delete leading and trailing silent blocks : No
Null samples used in CRC calculations : Yes
Used interface : Installed external ASPI interface

Used output format : User Defined Encoder
Selected bitrate : 1024 kBit/s
Quality : High
Add ID3 tag : No
Command line compressor : C:\Program Files (x86)\Exact Audio Copy\Flac\flac.exe
Additional command line options : -6 -V -T "ARTIST=%artist%" -T "TITLE=%title%" -T "ALBUM=%albumtitle%" -T "DATE=%year%" -T "TRACKNUMBER=%tracknr%" -T "GENRE=%genre%" -T "COMMENT=%comment%" -T "BAND=%albuminterpret%" -T "COMPOSER=%composer%" %haslyrics%--tag-from-file=LYRICS="%lyricsfile%"%haslyrics% -T "DISCNUMBER=%cdnumber%" -T "TOTALDISCS=%totalcds%" -T "TOTALTRACKS=%numtracks%" %hascover%--picture="%coverfile%"%hascover% %source% -o %dest%


TOC of the extracted CD

Track | Start | Length | Start sector | End sector
---------------------------------------------------------
1 | 0:00.00 | 2:41.08 | 0 | 12082
2 | 2:41.08 | 2:08.33 | 12083 | 21715
3 | 4:49.41 | 2:25.24 | 21716 | 32614
4 | 7:14.65 | 1:54.21 | 32615 | 41185
5 | 9:09.11 | 2:12.60 | 41186 | 51145
6 | 11:21.71 | 2:34.01 | 51146 | 62696
7 | 13:55.72 | 1:58.48 | 62697 | 71594
8 | 15:54.45 | 2:11.54 | 71595 | 81473
9 | 18:06.24 | 2:08.33 | 81474 | 91106
10 | 20:14.57 | 2:24.58 | 91107 | 101964
11 | 22:39.40 | 1:52.08 | 101965 | 110372
12 | 24:31.48 | 2:16.04 | 110373 | 120576
13 | 26:47.52 | 1:51.43 | 120577 | 128944
14 | 28:39.20 | 2:38.28 | 128945 | 140822
15 | 31:17.48 | 1:39.44 | 140823 | 148291
16 | 32:57.17 | 2:06.59 | 148292 | 157800
17 | 35:04.01 | 2:26.70 | 157801 | 168820
18 | 37:30.71 | 2:46.00 | 168821 | 181270


Range status and errors

Selected range

Filename C:\mm\Russ Conway\1959(2010) - Time To Celebrate [709852]\Russ Conway - Time To Celebrate.wav

Peak level 72.0 %
Extraction speed 7.9 X
Range quality 99.9 %
Test CRC 57A63C77
Copy CRC 57A63C77
Copy OK

No errors occurred


AccurateRip summary

Track 1 not present in database
Track 2 not present in database
Track 3 not present in database
Track 4 not present in database
Track 5 not present in database
Track 6 not present in database
Track 7 not present in database
Track 8 not present in database
Track 9 not present in database
Track 10 not present in database
Track 11 not present in database
Track 12 not present in database
Track 13 not present in database
Track 14 not present in database
Track 15 not present in database
Track 16 not present in database
Track 17 not present in database
Track 18 not present in database

None of the tracks are present in the AccurateRip database

End of status report
[свернуть]

Файл CUE

REM GENRE "Instrumental Pop"
REM DATE 2010
REM DISCID FE097012
REM COMMENT "ExactAudioCopy v1.0b3"
PERFORMER "Russ Conway"
TITLE "Time To Celebrate"
FILE "Russ Conway - Time To Celebrate.flac" WAVE
TRACK 01 AUDIO
TITLE "Time To Celebrate"
PERFORMER "Russ Conway"
INDEX 01 00:00:00
TRACK 02 AUDIO
TITLE "I’m Just Wild About Harry"
PERFORMER "Russ Conway"
INDEX 01 02:41:08
TRACK 03 AUDIO
TITLE "You Must Have Been A Beautiful Babby"
PERFORMER "Russ Conway"
INDEX 01 04:49:41
TRACK 04 AUDIO
TITLE "It’s A Long Way To Tipperary"
PERFORMER "Russ Conway"
INDEX 01 07:14:65
TRACK 05 AUDIO
TITLE "Down At The Old Bull And Bush"
PERFORMER "Russ Conway"
INDEX 01 09:09:11
TRACK 06 AUDIO
TITLE "Brown Eyes (Why Are You Blue?)"
PERFORMER "Russ Conway"
INDEX 01 11:21:71
TRACK 07 AUDIO
TITLE "I Like Mountain Music"
PERFORMER "Russ Conway"
INDEX 01 13:55:72
TRACK 08 AUDIO
TITLE "Cuddle Up A Little Closer"
PERFORMER "Russ Conway"
INDEX 01 15:54:45
TRACK 09 AUDIO
TITLE "Let The Great Big World Keep Turning"
PERFORMER "Russ Conway"
INDEX 01 18:06:24
TRACK 10 AUDIO
TITLE "Who’s Sorry Now?"
PERFORMER "Russ Conway"
INDEX 01 20:14:57
TRACK 11 AUDIO
TITLE "Yankee Doodle Boy"
PERFORMER "Russ Conway"
INDEX 01 22:39:40
TRACK 12 AUDIO
TITLE "When The Midnight Choo Choo Leaves For Alabama"
PERFORMER "Russ Conway"
INDEX 01 24:31:48
TRACK 13 AUDIO
TITLE "Wait Till The Sun Shines Nellie"
PERFORMER "Russ Conway"
INDEX 01 26:47:52
TRACK 14 AUDIO
TITLE "Singin' In The Rain"
PERFORMER "Russ Conway"
INDEX 01 28:39:20
TRACK 15 AUDIO
TITLE "If You’re Irish, Come Into The Parlour"
PERFORMER "Russ Conway"
INDEX 01 31:17:48
TRACK 16 AUDIO
TITLE "Sweet Rosie O’Grady"
PERFORMER "Russ Conway"
INDEX 01 32:57:17
TRACK 17 AUDIO
TITLE "Let The Rest Of The World Go By"
PERFORMER "Russ Conway"
INDEX 01 35:04:01
TRACK 18 AUDIO
TITLE "When Day Is Done"
PERFORMER "Russ Conway"
INDEX 01 37:30:71
[свернуть]

Лог проверки качества

AUDIOCHECKER v2.0 beta (build 457) - by Dester -
~~~~~~~~~~~~~~~~~~~~~~~~~~~~~~~~~~
-=== НЕ РЕДАКТИРУЙТЕ ЭТОТ ФАЙЛ! ===-

Путь: ...\1959(2010) - Time To Celebrate [709852]

1 -=- Russ Conway - Time To Celebrate.flac -=- CDDA (100%)

50971700
[свернуть]

Спектр частот

[свернуть]

Скачать Russ Conway - Time To Celebrate



password: sergych
[свернуть]
My opinion of release: 10/10
__________________
TAIFUN.Wings of Soul

Вверх
Похожие темы
Тема Автор Раздел Ответов Последнее сообщение
Альбом Russ Conway - Party Time sergych Instrumental 0 12.04.2015 23:11
VA Celebrate Techno Music PUPOKIN Techno 0 01.12.2010 09:51
Doro - Celebrate (The Night Of The Warlock) ReAl Heavy Metal 0 10.11.2008 22:06
Ремикс Cerrone - Celebrate! sergych Disco 0 29.10.2008 22:12
DJ Russ Harris feat. Jiga DarkDan House 0 27.04.2008 15:05


Метки
1959 , instrumental pop , russ conway , time to celebrate

Опции темы

Ваши права в разделе
Вы не можете создавать новые темы
Вы не можете отвечать в темах
Вы не можете прикреплять вложения
Вы не можете редактировать свои сообщения

Быстрый переход



Текущее время: 02:58. Часовой пояс GMT +3.
Powered by vBulletin® Version 3.8.10
Copyright ©2000 - 2017, vBulletin Solutions, Inc. Перевод: zCarot
© 2008 - 2017 Taifun With Song
Яндекс.Метрика