TAIFUN With Song
Instrumental Релизы. Инструментальная музыка.

А знаете ли Вы, что...
Чем прославился Боб Марли до того, как стать музыкантом?
«Знаменитый ямайский регги-музыкант Боб Марли в детстве был известен в своей деревне как талантливый предсказатель по линиям на ладонях.»
 
Опции темы

  #1
Старый 12.04.2015, 22:11
sergych
Координатор
Досье
 
Аватар для sergych
Релиз Russ Conway - Party Time


1960(2011) - Russ Conway - Party Time




Исполнитель/Artist: Russ Conway
Альбом/Album: Party Time
Год/Year: 1960
Ремастеринг/Remaster: 2011
Жанр/Genre: instrumental pop
Страна/Country: Нидерланды
Рекорд-лейбл/Record label: Hallmark
Номер в каталоге/Catalogue #: 710182
Формат/Format: Free Lossless Audio Codec (*.flac)
Качество/Quality: Lossless
Тип рипа/RIP Type: image+.cue
Продолжительность/Length: 00:43:54
Источник/Source: Собственный рип
Размер/Size: 222.5 MB

Сканы в комплекте

Треклист

01. The Dark Town Strutters Ball [0:02:19.18]
02. Oh, Johnny! Oh, Johnny! Oh! [0:02:38.34]
03. You Were Meant For Me [0:02:54.03]
04. Toot, Toot, Tootsie! (Good Bye) [0:03:04.65]
05. When The Red, Red, Robin Comes Bob, Bob, Bobbin' Along [0:03:14.68]
06. Give My Regards To Broadway [0:02:34.18]
07. Miss Annabelle Lee [0:02:39.42]
08. Rock-A-Bye Your Baby With A Dixie Melody [0:03:02.00]
09. Put Your Arms Around Me, Honey [0:02:46.20]
10. Rolling Round The World [0:02:32.44]
11. Painting The Clouds With Sunshine [0:02:46.01]
12. Down Yonder [0:02:18.74]
13. A Gal In Calico [0:02:17.45]
14. I'm Sitting On Top Of The World [0:02:47.73]
15. Carolina In The Morning [0:02:47.39]
16. Swanee [0:03:09.37]
[свернуть]

youtube.com

[свернуть]

EAC лог

Exact Audio Copy V1.0 beta 3 from 29. August 2011

EAC extraction logfile from 12. April 2015, 22:21

Russ Conway / Party Time

Used drive : ATAPI iHAS124 D Adapter: 0 ID: 2

Read mode : Secure
Utilize accurate stream : Yes
Defeat audio cache : Yes
Make use of C2 pointers : No

Read offset correction : 6
Overread into Lead-In and Lead-Out : No
Fill up missing offset samples with silence : Yes
Delete leading and trailing silent blocks : No
Null samples used in CRC calculations : Yes
Used interface : Installed external ASPI interface

Used output format : User Defined Encoder
Selected bitrate : 1024 kBit/s
Quality : High
Add ID3 tag : No
Command line compressor : C:\Program Files (x86)\Exact Audio Copy\Flac\flac.exe
Additional command line options : -6 -V -T "ARTIST=%artist%" -T "TITLE=%title%" -T "ALBUM=%albumtitle%" -T "DATE=%year%" -T "TRACKNUMBER=%tracknr%" -T "GENRE=%genre%" -T "COMMENT=%comment%" -T "BAND=%albuminterpret%" -T "COMPOSER=%composer%" %haslyrics%--tag-from-file=LYRICS="%lyricsfile%"%haslyrics% -T "DISCNUMBER=%cdnumber%" -T "TOTALDISCS=%totalcds%" -T "TOTALTRACKS=%numtracks%" %hascover%--picture="%coverfile%"%hascover% %source% -o %dest%


TOC of the extracted CD

Track | Start | Length | Start sector | End sector
---------------------------------------------------------
1 | 0:00.00 | 2:19.18 | 0 | 10442
2 | 2:19.18 | 2:38.34 | 10443 | 22326
3 | 4:57.52 | 2:54.03 | 22327 | 35379
4 | 7:51.55 | 3:04.65 | 35380 | 49244
5 | 10:56.45 | 3:14.68 | 49245 | 63862
6 | 14:11.38 | 2:34.18 | 63863 | 75430
7 | 16:45.56 | 2:39.42 | 75431 | 87397
8 | 19:25.23 | 3:02.00 | 87398 | 101047
9 | 22:27.23 | 2:46.20 | 101048 | 113517
10 | 25:13.43 | 2:32.44 | 113518 | 124961
11 | 27:46.12 | 2:46.01 | 124962 | 137412
12 | 30:32.13 | 2:18.74 | 137413 | 147836
13 | 32:51.12 | 2:17.45 | 147837 | 158156
14 | 35:08.57 | 2:47.73 | 158157 | 170754
15 | 37:56.55 | 2:47.39 | 170755 | 183318
16 | 40:44.19 | 3:09.37 | 183319 | 197530


Range status and errors

Selected range

Filename C:\mm\Russ Conway\1960(2011) - Party Time [710182]\Russ Conway - Party Time.wav

Peak level 37.4 %
Extraction speed 8.1 X
Range quality 99.9 %
Test CRC 6CCB02E4
Copy CRC 6CCB02E4
Copy OK

No errors occurred


AccurateRip summary

Track 1 not present in database
Track 2 not present in database
Track 3 not present in database
Track 4 not present in database
Track 5 not present in database
Track 6 not present in database
Track 7 not present in database
Track 8 not present in database
Track 9 not present in database
Track 10 not present in database
Track 11 not present in database
Track 12 not present in database
Track 13 not present in database
Track 14 not present in database
Track 15 not present in database
Track 16 not present in database

None of the tracks are present in the AccurateRip database

End of status report
[свернуть]

Файл CUE

REM GENRE "Instrumental Pop"
REM DATE 2011
REM DISCID E10A4910
REM COMMENT "ExactAudioCopy v1.0b3"
PERFORMER "Russ Conway"
TITLE "Party Time"
FILE "Russ Conway - Party Time.flac" WAVE
TRACK 01 AUDIO
TITLE "The Dark Town Strutters Ball"
PERFORMER "Russ Conway"
INDEX 01 00:00:00
TRACK 02 AUDIO
TITLE "Oh, Johnny! Oh, Johnny! Oh!"
PERFORMER "Russ Conway"
INDEX 01 02:19:18
TRACK 03 AUDIO
TITLE "You Were Meant For Me"
PERFORMER "Russ Conway"
INDEX 01 04:57:52
TRACK 04 AUDIO
TITLE "Toot, Toot, Tootsie! (Good Bye)"
PERFORMER "Russ Conway"
INDEX 01 07:51:55
TRACK 05 AUDIO
TITLE "When The Red, Red, Robin Comes Bob, Bob, Bobbin' Along"
PERFORMER "Russ Conway"
INDEX 01 10:56:45
TRACK 06 AUDIO
TITLE "Give My Regards To Broadway"
PERFORMER "Russ Conway"
INDEX 01 14:11:38
TRACK 07 AUDIO
TITLE "Miss Annabelle Lee"
PERFORMER "Russ Conway"
INDEX 01 16:45:56
TRACK 08 AUDIO
TITLE "Rock-A-Bye Your Baby With A Dixie Melody"
PERFORMER "Russ Conway"
INDEX 01 19:25:23
TRACK 09 AUDIO
TITLE "Put Your Arms Around Me, Honey"
PERFORMER "Russ Conway"
INDEX 01 22:27:23
TRACK 10 AUDIO
TITLE "Rolling Round The World"
PERFORMER "Russ Conway"
INDEX 01 25:13:43
TRACK 11 AUDIO
TITLE "Painting The Clouds With Sunshine"
PERFORMER "Russ Conway"
INDEX 01 27:46:12
TRACK 12 AUDIO
TITLE "Down Yonder"
PERFORMER "Russ Conway"
INDEX 01 30:32:13
TRACK 13 AUDIO
TITLE "A Gal In Calico"
PERFORMER "Russ Conway"
INDEX 01 32:51:12
TRACK 14 AUDIO
TITLE "I'm Sitting On Top Of The World"
PERFORMER "Russ Conway"
INDEX 01 35:08:57
TRACK 15 AUDIO
TITLE "Carolina In The Morning"
PERFORMER "Russ Conway"
INDEX 01 37:56:55
TRACK 16 AUDIO
TITLE "Swanee"
PERFORMER "Russ Conway"
INDEX 01 40:44:19
[свернуть]

Лог проверки качества

AUDIOCHECKER v2.0 beta (build 457) - by Dester -
~~~~~~~~~~~~~~~~~~~~~~~~~~~~~~~~~~
-=== НЕ РЕДАКТИРУЙТЕ ЭТОТ ФАЙЛ! ===-

Путь: ...\1960(2011) - Party Time [710182]

1 -=- Russ Conway - Party Time.flac -=- CDDA (100%)

125907236
[свернуть]

Спектр частот

[свернуть]

Скачать Russ Conway - Party Time



password: sergych
[свернуть]
My opinion of release: 10/10
__________________
TAIFUN.Wings of Soul

Вверх
Пользователь сказал cпасибо:
johnsilver (27.08.2017)
Похожие темы
Тема Автор Раздел Ответов Последнее сообщение
Сборник Paul Young - From Time To Time. The Singles Collection sergych Зарубежная Поп-Музыка 0 28.07.2014 08:47
Релиз Whiteboy James & The Blues Express - Last Time Was The Last Time PUPOKIN Jazz и Blues 0 15.08.2010 14:34
Микс Dj JIM - LIVE SET on DFM PARTY TIME PUPOKIN Electro 0 04.10.2009 14:11
Top 100 Trance and Techno Party Songs of All Time PUPOKIN Trance 0 08.08.2008 12:07
DJ Russ Harris feat. Jiga DarkDan House 0 27.04.2008 15:05


Метки
1960 , instrumental pop , party time , russ conway

Опции темы

Ваши права в разделе
Вы не можете создавать новые темы
Вы не можете отвечать в темах
Вы не можете прикреплять вложения
Вы не можете редактировать свои сообщения

Быстрый переход



Текущее время: 20:17. Часовой пояс GMT +3.
Powered by vBulletin® Version 3.8.7
Copyright ©2000 - 2017, vBulletin Solutions, Inc. Перевод: zCarot
© 2008 - 2017 Taifun With Song
Яндекс.Метрика