TAIFUN With Song
Instrumental Релизы. Инструментальная музыка.

А знаете ли Вы, что...
Какой наркотик, по распространённому мнению, оказал прямое влияние на выбор названия одной из песен Beatles?
«Когда Beatles записали песню "Lucy in the Sky with Diamonds", Джон Леннон объяснил происхождение названия песни тем, что так окрестил свой рисунок его сын Джулиан. Однако многие усмотрели в этом названии намёк на наркотик LSD, ведь именно такая аббревиатура складывалась из его первых букв, а BBC и вовсе запретило песню к ротации. Позже Пол Маккартни рассказал, что влияние LSD на эту песню довольно очевидно.»
 
Опции темы

  #1
Старый 07.04.2015, 21:18
sergych
Координатор
Досье
 
Аватар для sergych
Thumbs up Rene Aubry - Apres la pluie


1993 - Rene Aubry - Apres la pluie




Исполнитель/Artist: Rene Aubry
Альбом/Album: Apres la pluie
Год/Year: 1993
Жанр/Genre: Instrumental, Modern Classical, Downtempo, Neofolk
Страна/Country: Франция
Рекорд-лейбл/Record label: Hopi Mesa
Номер в каталоге/Catalogue #: 852326
Формат/Format: MPEG Layer-3 (*.mp3)
Качество/Quality: CBR 320 kbps
Тип рипа/RIP Type: tracks
Продолжительность/Length: 00:43:20
Источник/Source: Из интернета
Размер/Size: 105.8 MB

Сканы в комплекте

Треклист

01 - Avant la pluie (part I)
02 - Avant la pluie (part II)
03 - Quintette
04 - Non ti amo piu
05 - Paso
06 - Take my hand
07 - Vertige
08 - Nuage
09 - Madame Papillon
10 - Pomeriggio (D'apre Jag Kalyi)
11 - Chagrin
12 - Apres la pluie
[свернуть]

youtube.com

[свернуть]

Скачать Rene Aubry - Apres la pluie

[Ссылки могут видеть только зарегистрированные пользователи. ]

password: sergych
[свернуть]
My opinion of release: 9/10
__________________
TAIFUN.Wings of Soul

Вверх
Пользователь сказал cпасибо:
TAIFUN (08.04.2015)
  #2
Старый 08.04.2015, 14:00
TAIFUN
Admin
Досье
 
Аватар для TAIFUN
По умолчанию Rene Aubry - Apres la pluie


1993 - Rene Aubry - Apres la pluie




Исполнитель/Artist: Rene Aubry
Альбом/Album: Apres la pluie
Год/Year: 1993
Жанр/Genre: Instrumental, Modern Classical, Downtempo, Neofolk
Страна/Country: Франция
Рекорд-лейбл/Record label: Hopi Mesa
Номер в каталоге/Catalogue #: 852326
Формат/Format: Free Lossless Audio Codec (*.flac)
Качество/Quality: Lossless
Тип рипа/RIP Type: tracks+.cue
Продолжительность/Length: 00:43:55
Размер/Size: 234.3 MB


Треклист

01. Avant la pluie (part I)
02. Avant la pluie (part II)
03. Quintette
04. Non ti amo piu
05. Paso
06. Take my hand
07. Vertige
08. Nuage
09. Madame Papillon
10. Pomeriggio (D'apre Jag Kalyi)
11. Chagrin
12. Apres la pluie
[свернуть]

youtube.com

[свернуть]

EAC лог

Exact Audio Copy V1.0 beta 4 from 7. December 2014

EAC extraction logfile from 3. April 2015, 22:52

Rene Aubry / Après la pluie

Used drive : PLDS DVD+-RW DL-8A4SH Adapter: 1 ID: 0

Read mode : Secure
Utilize accurate stream : Yes
Defeat audio cache : Yes
Make use of C2 pointers : No

Read offset correction : 6
Overread into Lead-In and Lead-Out : No
Fill up missing offset samples with silence : Yes
Delete leading and trailing silent blocks : No
Null samples used in CRC calculations : Yes
Used interface : Native Win32 interface for Win NT & 2000
Gap handling : Appended to previous track

Used output format : User Defined Encoder
Selected bitrate : 768 kBit/s
Quality : High
Add ID3 tag : No
Command line compressor : C:\Program Files (x86)\Exact Audio Copy\FLAC\FLAC.EXE
Additional command line options : -8 -V -T "ARTIST=%artist%" -T "TITLE=%title%" -T "ALBUM=%albumtitle%" -T "DATE=%year%" -T "TRACKNUMBER=%tracknr%" -T "GENRE=%genre%" -T "PERFORMER=%albuminterpret%" -T "COMPOSER=%composer%" %haslyrics%--tag-from-file=LYRICS="%lyricsfile%"%haslyrics% -T "ALBUMARTIST=%albumartist%" -T "DISCNUMBER=%cdnumber%" -T "TOTALDISCS=%totalcds%" -T "TOTALTRACKS=%numtracks%" -T "COMMENT=%comment%" %source% -o %dest%


TOC of the extracted CD

Track | Start | Length | Start sector | End sector
---------------------------------------------------------
1 | 0:00.33 | 1:45.00 | 33 | 7907
2 | 1:45.33 | 4:02.45 | 7908 | 26102
3 | 5:48.03 | 2:48.62 | 26103 | 38764
4 | 8:36.65 | 5:00.63 | 38765 | 61327
5 | 13:37.53 | 4:05.30 | 61328 | 79732
6 | 17:43.08 | 3:33.25 | 79733 | 95732
7 | 21:16.33 | 4:12.22 | 95733 | 114654
8 | 25:28.55 | 3:40.05 | 114655 | 131159
9 | 29:08.60 | 2:36.23 | 131160 | 142882
10 | 31:45.08 | 5:13.17 | 142883 | 166374
11 | 36:58.25 | 3:04.03 | 166375 | 180177
12 | 40:02.28 | 3:53.00 | 180178 | 197652


Track 1

Filename e:\rips\01 - Avant la pluie (part I).wav

Pre-gap length 0:00:02.44

Peak level 61.7 %
Extraction speed 0.9 X
Track quality 100.0 %
Test CRC 56D8DA76
Copy CRC 56D8DA76
Accurately ripped (confidence 5) [03462B62] (AR v2)
Copy OK

Track 2

Filename e:\rips\02 - Avant la pluie (part II).wav

Peak level 89.8 %
Extraction speed 1.1 X
Track quality 100.0 %
Test CRC C881937D
Copy CRC C881937D
Accurately ripped (confidence 5) [76F5BC5C] (AR v2)
Copy OK

Track 3

Filename e:\rips\03 - Quintette.wav

Pre-gap length 0:00:02.73

Peak level 96.1 %
Extraction speed 1.2 X
Track quality 100.0 %
Test CRC D0DCF453
Copy CRC D0DCF453
Accurately ripped (confidence 5) [A21B9D25] (AR v2)
Copy OK

Track 4

Filename e:\rips\04 - Non ti amo piu.wav

Pre-gap length 0:00:03.09

Peak level 96.2 %
Extraction speed 1.4 X
Track quality 100.0 %
Test CRC 0678B543
Copy CRC 0678B543
Accurately ripped (confidence 5) [1CF04965] (AR v2)
Copy OK

Track 5

Filename e:\rips\05 - Paso.wav

Pre-gap length 0:00:03.17

Peak level 92.8 %
Extraction speed 1.5 X
Track quality 100.0 %
Test CRC 58EB48EC
Copy CRC 58EB48EC
Accurately ripped (confidence 5) [9060EB2B] (AR v2)
Copy OK

Track 6

Filename e:\rips\06 - Take my hand.wav

Pre-gap length 0:00:02.93

Peak level 70.9 %
Extraction speed 1.5 X
Track quality 100.0 %
Test CRC FCDD746E
Copy CRC FCDD746E
Accurately ripped (confidence 5) [EE822A44] (AR v2)
Copy OK

Track 7

Filename e:\rips\07 - Vertige.wav

Pre-gap length 0:00:03.04

Peak level 100.0 %
Extraction speed 1.5 X
Track quality 99.9 %
Test CRC BDAA4E84
Copy CRC BDAA4E84
Accurately ripped (confidence 5) [A178A97D] (AR v2)
Copy OK

Track 8

Filename e:\rips\08 - Nuage.wav

Pre-gap length 0:00:04.46

Peak level 84.4 %
Extraction speed 1.5 X
Track quality 99.9 %
Test CRC EAE4E61B
Copy CRC EAE4E61B
Accurately ripped (confidence 5) [6C55D6C3] (AR v2)
Copy OK

Track 9

Filename e:\rips\09 - Madame Papillon.wav

Pre-gap length 0:00:04.60

Peak level 91.5 %
Extraction speed 1.7 X
Track quality 100.0 %
Test CRC 514C347E
Copy CRC 514C347E
Accurately ripped (confidence 5) [638AB75A] (AR v2)
Copy OK

Track 10

Filename e:\rips\10 - Pomeriggio (D'apre Jag Kalyi).wav

Pre-gap length 0:00:04.37

Peak level 99.2 %
Extraction speed 1.9 X
Track quality 100.0 %
Test CRC DCA0A6BA
Copy CRC DCA0A6BA
Accurately ripped (confidence 5) [3B2A6688] (AR v2)
Copy OK

Track 11

Filename e:\rips\11 - Chagrin.wav

Pre-gap length 0:00:04.36

Peak level 96.8 %
Extraction speed 1.9 X
Track quality 100.0 %
Test CRC 8F4E58B5
Copy CRC 8F4E58B5
Accurately ripped (confidence 5) [93600837] (AR v2)
Copy OK

Track 12

Filename e:\rips\12 - Après la pluie.wav

Pre-gap length 0:00:03.04

Peak level 100.0 %
Extraction speed 2.0 X
Track quality 100.0 %
Test CRC 7A2DA3FF
Copy CRC 7A2DA3FF
Accurately ripped (confidence 5) [CFF6F4DD] (AR v2)
Copy OK


All tracks accurately ripped

No errors occurred

End of status report

---- CUETools DB Plugin V2.1.4

[CTDB TOCID: xsM1EQf9Su98hoj_iQkK0Z99CFs-] found
Submit result: xsM1EQf9Su98hoj_iQkK0Z99CFs- has been confirmed
Track | CTDB Status
1 | (3/3) Accurately ripped
2 | (3/3) Accurately ripped
3 | (3/3) Accurately ripped
4 | (3/3) Accurately ripped
5 | (3/3) Accurately ripped
6 | (3/3) Accurately ripped
7 | (3/3) Accurately ripped
8 | (3/3) Accurately ripped
9 | (3/3) Accurately ripped
10 | (3/3) Accurately ripped
11 | (3/3) Accurately ripped
12 | (3/3) Accurately ripped


==== Log checksum D2B87AFFE7C4D6BF2B1F830DB4939932FAA326AFE1F6B976D2843B6621E6A812 ====
[свернуть]

Файл CUE

REM GENRE Instrumental
REM DATE 1993
REM DISCID 870A4B0C
REM COMMENT "ExactAudioCopy v1.0b4"
CATALOG 0000000000000
PERFORMER "Rene Aubry"
TITLE "Aprиs la pluie"
FILE "01 - Avant la pluie (part I).wav" WAVE
TRACK 01 AUDIO
TITLE "Avant la pluie (part I)"
PERFORMER "Rene Aubry"
PREGAP 00:00:33
INDEX 01 00:00:00
FILE "02 - Avant la pluie (part II).wav" WAVE
TRACK 02 AUDIO
TITLE "Avant la pluie (part II)"
PERFORMER "Rene Aubry"
INDEX 01 00:00:00
TRACK 03 AUDIO
TITLE "Quintette"
PERFORMER "Rene Aubry"
INDEX 00 03:59:65
FILE "03 - Quintette.wav" WAVE
INDEX 01 00:00:00
TRACK 04 AUDIO
TITLE "Non ti amo piu"
PERFORMER "Rene Aubry"
INDEX 00 02:45:55
FILE "04 - Non ti amo piu.wav" WAVE
INDEX 01 00:00:00
TRACK 05 AUDIO
TITLE "Paso"
PERFORMER "Rene Aubry"
INDEX 00 04:57:50
FILE "05 - Paso.wav" WAVE
INDEX 01 00:00:00
TRACK 06 AUDIO
TITLE "Take my hand"
PERFORMER "Rene Aubry"
INDEX 00 04:02:35
FILE "06 - Take my hand.wav" WAVE
INDEX 01 00:00:00
TRACK 07 AUDIO
TITLE "Vertige"
PERFORMER "Rene Aubry"
INDEX 00 03:30:22
FILE "07 - Vertige.wav" WAVE
INDEX 01 00:00:00
TRACK 08 AUDIO
TITLE "Nuage"
PERFORMER "Rene Aubry"
INDEX 00 04:07:62
FILE "08 - Nuage.wav" WAVE
INDEX 01 00:00:00
TRACK 09 AUDIO
TITLE "Madame Papillon"
PERFORMER "Rene Aubry"
INDEX 00 03:35:35
FILE "09 - Madame Papillon.wav" WAVE
INDEX 01 00:00:00
TRACK 10 AUDIO
TITLE "Pomeriggio (D'apre Jag Kalyi)"
PERFORMER "Rene Aubry"
INDEX 00 02:31:70
FILE "10 - Pomeriggio (D'apre Jag Kalyi).wav" WAVE
INDEX 01 00:00:00
TRACK 11 AUDIO
TITLE "Chagrin"
PERFORMER "Rene Aubry"
INDEX 00 05:08:65
FILE "11 - Chagrin.wav" WAVE
INDEX 01 00:00:00
TRACK 12 AUDIO
TITLE "Aprиs la pluie"
PERFORMER "Rene Aubry"
INDEX 00 03:01:00
FILE "12 - Aprиs la pluie.wav" WAVE
INDEX 01 00:00:00
[свернуть]

Спектр частот

[свернуть]

Скачать Rene Aubry - Apres la pluie

[Ссылки могут видеть только зарегистрированные пользователи. ]
[свернуть]
My opinion of release: 9/10

Вверх
Пользователь сказал cпасибо:
sergych (08.04.2015)
Похожие темы
Тема Автор Раздел Ответов Последнее сообщение
Альбом Rene Aubry - Steppe sergych Instrumental 5 06.04.2015 21:13
Альбом Rene Aubry - Plaisirs D'Amour sergych Instrumental 0 20.11.2011 17:48
Альбом Rene Aubry - Derives sergych Instrumental 0 27.06.2009 22:42
Альбом Rene Aubry - Libre Parcours sergych Instrumental 0 27.06.2009 20:57
Альбом Rene Aubry - Play Time sergych Instrumental 0 12.06.2009 20:26


Метки
1993 , apres la pluie , downtempo , instrumental , modern classical , neofolk , rene aubry

Опции темы

Ваши права в разделе
Вы не можете создавать новые темы
Вы не можете отвечать в темах
Вы не можете прикреплять вложения
Вы не можете редактировать свои сообщения

Быстрый переход



Текущее время: 01:29. Часовой пояс GMT +3.
Powered by vBulletin® Version 3.8.7
Copyright ©2000 - 2017, vBulletin Solutions, Inc. Перевод: zCarot
© 2008 - 2017 Taifun With Song
Яндекс.Метрика