TAIFUN With Song
Вернуться   TAIFUN With Song > Music (обменник) > Rock > Soft Rock
Расширенный поиск
Soft Rock Это музыкальный стиль, который использует технику рок-н-ролла чтобы достичь более мягкого, более приятного для слуха звука, чтобы такую музыку было приятно слушать, например, на работе или за рулем. Soft rock всегда поется с высокими голосами, если певец мужчина, то он будет петь фальцетом, слова soft rock’а всегда сфокусированы на приятные темы, такие, как любовь, ежедневная жизнь и дружба.

А знаете ли Вы, что...
Каким образом в Древнем Китае для определения эталона длины применяли колокол?
«В Древнем Китае эталоном меры длины служил специальный колокол, настроенный на заданную высоту звучания. В другом приспособлении натягивалась струна, чтобы её звук соответствовал данной высоте, и получившаяся длина струны принималась за эталон.»
 
Опции темы

  #1
Старый 21.03.2015, 14:51
sergych
Координатор
Досье
 
Аватар для sergych
Релиз Stevie Nicks - The Other Side of The Mirror


1989 - Stevie Nicks - The Other Side of The Mirror




Исполнитель/Artist: Stevie Nicks
Альбом/Album: The Other Side of The Mirror
Год/Year: 1989
Жанр/Genre: Soft rock, rock
Страна/Country: Великобритания
Рекорд-лейбл/Record label: Modern Records
Номер в каталоге/Catalogue #: CDEMD 1008
Формат/Format: Free Lossless Audio Codec (*.flac)
Качество/Quality: Lossless
Тип рипа/RIP Type: image+.cue
Продолжительность/Length: 00:56:14
Источник/Source: Собственный рип
Размер/Size: 394.4 MB

Сканы в комплекте

Треклист

01. Rooms On Fire [0:04:35.35]
02. Long Way To Go [0:04:07.55]
03. Two Kinds Of Love [0:04:46.48]
04. Ooh My Love [0:05:04.02]
05. Ghosts [0:04:54.10]
06. Whole Lotta Trouble [0:04:55.13]
07. Fire Burning [0:03:16.45]
08. Cry Wolf [0:04:09.57]
09. Alice [0:05:47.00]
10. Juliet [0:04:51.53]
11. Doing The Best I Can (Escape From Berlin) [0:05:36.02]
12. I Still Miss Someone (Blue Eyes) [0:04:09.38]
[свернуть]

youtube.com

[свернуть]

EAC лог

Exact Audio Copy V1.0 beta 3 from 29. August 2011

EAC extraction logfile from 20. March 2015, 23:31

Stevie Nicks / The Other Side of The Mirror

Used drive : ATAPI iHAS124 D Adapter: 0 ID: 2

Read mode : Secure
Utilize accurate stream : Yes
Defeat audio cache : Yes
Make use of C2 pointers : No

Read offset correction : 6
Overread into Lead-In and Lead-Out : No
Fill up missing offset samples with silence : Yes
Delete leading and trailing silent blocks : No
Null samples used in CRC calculations : Yes
Used interface : Installed external ASPI interface

Used output format : User Defined Encoder
Selected bitrate : 1024 kBit/s
Quality : High
Add ID3 tag : No
Command line compressor : C:\Program Files (x86)\Exact Audio Copy\Flac\flac.exe
Additional command line options : -6 -V -T "ARTIST=%artist%" -T "TITLE=%title%" -T "ALBUM=%albumtitle%" -T "DATE=%year%" -T "TRACKNUMBER=%tracknr%" -T "GENRE=%genre%" -T "COMMENT=%comment%" -T "BAND=%albuminterpret%" -T "COMPOSER=%composer%" %haslyrics%--tag-from-file=LYRICS="%lyricsfile%"%haslyrics% -T "DISCNUMBER=%cdnumber%" -T "TOTALDISCS=%totalcds%" -T "TOTALTRACKS=%numtracks%" %hascover%--picture="%coverfile%"%hascover% %source% -o %dest%


TOC of the extracted CD

Track | Start | Length | Start sector | End sector
---------------------------------------------------------
1 | 0:00.32 | 4:35.35 | 32 | 20691
2 | 4:35.67 | 4:07.55 | 20692 | 39271
3 | 8:43.47 | 4:46.48 | 39272 | 60769
4 | 13:30.20 | 5:04.02 | 60770 | 83571
5 | 18:34.22 | 4:54.10 | 83572 | 105631
6 | 23:28.32 | 4:55.13 | 105632 | 127769
7 | 28:23.45 | 3:16.45 | 127770 | 142514
8 | 31:40.15 | 4:09.57 | 142515 | 161246
9 | 35:49.72 | 5:47.00 | 161247 | 187271
10 | 41:36.72 | 4:51.53 | 187272 | 209149
11 | 46:28.50 | 5:36.02 | 209150 | 234351
12 | 52:04.52 | 4:09.38 | 234352 | 253064


Range status and errors

Selected range

Filename C:\mm\Fleetwood Mac\Solo\Stevie Nicks\1989 - The Other Side of The Mirror [CDEMD 1008]\Stevie Nicks - The Other Side of The Mirror.wav

Peak level 100.0 %
Extraction speed 8.9 X
Range quality 100.0 %
Test CRC 6446A13D
Copy CRC 6446A13D
Copy OK

No errors occurred


AccurateRip summary

Track 1 accurately ripped (confidence 55) [E95DEBF7] (AR v2)
Track 2 accurately ripped (confidence 54) [C2B3017E] (AR v2)
Track 3 accurately ripped (confidence 54) [43516BFF] (AR v2)
Track 4 accurately ripped (confidence 53) [FB98013E] (AR v2)
Track 5 accurately ripped (confidence 53) [70EF2930] (AR v2)
Track 6 accurately ripped (confidence 54) [F89ABA9A] (AR v2)
Track 7 accurately ripped (confidence 53) [F022B5E1] (AR v2)
Track 8 accurately ripped (confidence 54) [080CC3C4] (AR v2)
Track 9 accurately ripped (confidence 54) [AABAB7D0] (AR v2)
Track 10 accurately ripped (confidence 54) [A1801D17] (AR v2)
Track 11 accurately ripped (confidence 54) [52D04D05] (AR v2)
Track 12 accurately ripped (confidence 53) [6BF89874] (AR v2)

All tracks accurately ripped

End of status report
[свернуть]

Файл CUE

REM GENRE "Female Vocal"
REM DATE 1989
REM DISCID 8F0D2E0C
REM COMMENT "ExactAudioCopy v1.0b3"
PERFORMER "Stevie Nicks"
TITLE "The Other Side of The Mirror"
FILE "Stevie Nicks - The Other Side of The Mirror.flac" WAVE
TRACK 01 AUDIO
TITLE "Rooms On Fire"
PERFORMER "Stevie Nicks"
INDEX 00 00:00:00
INDEX 01 00:00:32
TRACK 02 AUDIO
TITLE "Long Way To Go"
PERFORMER "Stevie Nicks"
INDEX 00 04:35:63
INDEX 01 04:35:67
TRACK 03 AUDIO
TITLE "Two Kinds Of Love"
PERFORMER "Stevie Nicks"
INDEX 00 08:42:48
INDEX 01 08:43:47
TRACK 04 AUDIO
TITLE "Ooh My Love"
PERFORMER "Stevie Nicks"
INDEX 00 13:30:15
INDEX 01 13:30:20
TRACK 05 AUDIO
TITLE "Ghosts"
PERFORMER "Stevie Nicks"
INDEX 00 18:34:18
INDEX 01 18:34:22
TRACK 06 AUDIO
TITLE "Whole Lotta Trouble"
PERFORMER "Stevie Nicks"
INDEX 00 23:28:28
INDEX 01 23:28:32
TRACK 07 AUDIO
TITLE "Fire Burning"
PERFORMER "Stevie Nicks"
INDEX 00 28:22:45
INDEX 01 28:23:45
TRACK 08 AUDIO
TITLE "Cry Wolf"
PERFORMER "Stevie Nicks"
INDEX 00 31:40:10
INDEX 01 31:40:15
TRACK 09 AUDIO
TITLE "Alice"
PERFORMER "Stevie Nicks"
INDEX 00 35:49:68
INDEX 01 35:49:72
TRACK 10 AUDIO
TITLE "Juliet"
PERFORMER "Stevie Nicks"
INDEX 00 41:36:68
INDEX 01 41:36:72
TRACK 11 AUDIO
TITLE "Doing The Best I Can (Escape From Berlin)"
PERFORMER "Stevie Nicks"
INDEX 00 46:27:15
INDEX 01 46:28:50
TRACK 12 AUDIO
TITLE "I Still Miss Someone (Blue Eyes)"
PERFORMER "Stevie Nicks"
INDEX 00 52:02:03
INDEX 01 52:04:52
[свернуть]

Лог проверки качества

AUDIOCHECKER v2.0 beta (build 457) - by Dester - [Ссылки могут видеть только зарегистрированные пользователи. ]
~~~~~~~~~~~~~~~~~~~~~~~~~~~~~~~~~~
-=== НЕ РЕДАКТИРУЙТЕ ЭТОТ ФАЙЛ! ===-

Путь: ...\1989 - The Other Side of The Mirror [CDEMD 1008]

1 -=- Stevie Nicks - The Other Side of The Mirror.flac -=- CDDA (100%)

222872980
[свернуть]

Спектр частот

[свернуть]

Скачать Stevie Nicks - The Other Side of The Mirror

[Ссылки могут видеть только зарегистрированные пользователи. ]

password: sergych
[свернуть]
My opinion of release: 10/10
__________________
TAIFUN.Wings of Soul

Вверх
4 пользователя(ей) сказали cпасибо:
Показать список поблагодаривших
  #2
Старый 13.05.2017, 21:12
sergych
Координатор
Досье
 
Аватар для sergych
По умолчанию Re: Stevie Nicks - The Other Side of The Mirror


1989 - Stevie Nicks - The Other Side of The Mirror




Исполнитель/Artist: Stevie Nicks
Альбом/Album: The Other Side of The Mirror
Год/Year: 1989
Жанр/Genre: Soft rock, rock
Страна/Country: Япония
Рекорд-лейбл/Record label: EMI Records
Номер в каталоге/Catalogue #: CP32-5851
Формат/Format: Free Lossless Audio Codec (*.flac)
Качество/Quality: Lossless
Тип рипа/RIP Type: image+.cue
Продолжительность/Length: 01:01:06
Источник/Source: Собственный рип
Размер/Size: 449.8 MB

Сканы в комплекте

Треклист

01. Rooms On Fire [0:04:26.05]
02. Long Way To Go [0:04:07.67]
03. Two Kinds Of Love [0:04:46.30]
04. Ooh My Love [0:05:03.60]
05. Ghosts [0:04:54.33]
06. Whole Lotta Trouble [0:04:55.12]
07. Fire Burning [0:03:16.35]
08. Cry Wolf [0:04:09.60]
09. Alice [0:05:47.00]
10. Juliet [0:04:51.68]
11. Doing The Best That I Can (Escape From Berlin) [0:05:36.05]
12. I Still Miss Someone (Blue Eyes) [0:04:12.07]
13. Has Anyone Ever Written Anything For You (Live) [0:04:59.30]
[свернуть]

youtube.com

[свернуть]

Исполнители/Performers

Stevie Nicks - vocals, percussion, tambourine
Lori Nicks, Sharon Celani - backing vocals
Rupert Hine - keyboards, percussion, drums
Geoff Dugmore, Jerry Marotta - drums
Rick Nowels - keyboards, guitar, backing vocals
Bruce Hornsby - piano, vocals
Kenny G - saxophone
Gary Grant, Jerry Hey, Larry Williams, Marc Russo - horns
Kelly Johnston - whistle
Jamie West-Oram, Mike Campbell, Waddy Wachtel - guitar
Vail Johnson - bass guitar
Derek Murphy, Tony Levin - bass
[свернуть]

EAC лог

Exact Audio Copy V1.3 from 2. September 2016

EAC extraction logfile from 13. May 2017, 1:35

Stevie Nicks / The Other Side Of The Mirror

Used drive : PLEXTOR DVDR PX-716A Adapter: 1 ID: 0

Read mode : Secure
Utilize accurate stream : Yes
Defeat audio cache : Yes
Make use of C2 pointers : No

Read offset correction : 30
Overread into Lead-In and Lead-Out : No
Fill up missing offset samples with silence : Yes
Delete leading and trailing silent blocks : No
Null samples used in CRC calculations : Yes
Used interface : Native Win32 interface for Win NT & 2000

Used output format : User Defined Encoder
Selected bitrate : 1024 kBit/s
Quality : High
Add ID3 tag : No
Command line compressor : C:\Program Files (x86)\Exact Audio Copy\FLAC\FLAC.EXE
Additional command line options : -6 -V -T "ARTIST=%artist%" -T "TITLE=%title%" -T "ALBUM=%albumtitle%" -T "DATE=%year%" -T "TRACKNUMBER=%tracknr%" -T "GENRE=%genre%" -T "COMMENT=%comment%" -T "BAND=%albuminterpret%" -T "ALBUMARTIST=%albuminterpret%" -T "COMPOSER=%composer%" %haslyrics%--tag-from-file=LYRICS="%lyricsfile%"%haslyrics% -T "DISCNUMBER=%cdnumber%" -T "TOTALDISCS=%totalcds%" -T "TOTALTRACKS=%numtracks%" %hascover%--picture="%coverfile%"%hascover% %source% -o %dest%


TOC of the extracted CD

Track | Start | Length | Start sector | End sector
---------------------------------------------------------
1 | 0:00.00 | 4:26.05 | 0 | 19954
2 | 4:26.05 | 4:07.67 | 19955 | 38546
3 | 8:33.72 | 4:46.30 | 38547 | 60026
4 | 13:20.27 | 5:03.60 | 60027 | 82811
5 | 18:24.12 | 4:54.33 | 82812 | 104894
6 | 23:18.45 | 4:55.12 | 104895 | 127031
7 | 28:13.57 | 3:16.35 | 127032 | 141766
8 | 31:30.17 | 4:09.60 | 141767 | 160501
9 | 35:40.02 | 5:47.00 | 160502 | 186526
10 | 41:27.02 | 4:51.68 | 186527 | 208419
11 | 46:18.70 | 5:36.05 | 208420 | 233624
12 | 51:55.00 | 4:12.07 | 233625 | 252531
13 | 56:07.07 | 4:59.30 | 252532 | 274986


Range status and errors

Selected range

Filename C:\mm\Fleetwood Mac\Solo\Stevie Nicks\1989 - The Other Side Of The Mirror [CP32-5851]\Stevie Nicks - The Other Side Of The Mirror.wav

Peak level 100.0 %
Extraction speed 13.2 X
Range quality 100.0 %
Test CRC 3021AACE
Copy CRC 3021AACE
Copy OK

No errors occurred


AccurateRip summary

Track 1 not present in database
Track 2 not present in database
Track 3 not present in database
Track 4 not present in database
Track 5 not present in database
Track 6 not present in database
Track 7 not present in database
Track 8 not present in database
Track 9 not present in database
Track 10 not present in database
Track 11 not present in database
Track 12 not present in database
Track 13 not present in database

None of the tracks are present in the AccurateRip database

End of status report

---- CUETools DB Plugin V2.1.6

[CTDB TOCID: 7RT4DsCyOleRnWbdALBouQtez18-] found
Submit result: 7RT4DsCyOleRnWbdALBouQtez18- has been confirmed
Track | CTDB Status
1 | (2/2) Accurately ripped
2 | (2/2) Accurately ripped
3 | (2/2) Accurately ripped
4 | (2/2) Accurately ripped
5 | (2/2) Accurately ripped
6 | (2/2) Accurately ripped
7 | (2/2) Accurately ripped
8 | (2/2) Accurately ripped
9 | (2/2) Accurately ripped
10 | (2/2) Accurately ripped
11 | (2/2) Accurately ripped
12 | (2/2) Accurately ripped
13 | (2/2) Accurately ripped
[свернуть]

Файл CUE

REM GENRE Rock
REM DATE 1989
REM DISCID AF0E520D
REM COMMENT "ExactAudioCopy v1.3"
PERFORMER "Stevie Nicks"
TITLE "The Other Side Of The Mirror"
REM COMPOSER ""
FILE "Stevie Nicks - The Other Side Of The Mirror.flac" WAVE
TRACK 01 AUDIO
TITLE "Rooms On Fire"
PERFORMER "Stevie Nicks"
REM COMPOSER ""
INDEX 01 00:00:00
TRACK 02 AUDIO
TITLE "Long Way To Go"
PERFORMER "Stevie Nicks"
REM COMPOSER ""
INDEX 00 04:25:17
INDEX 01 04:26:05
TRACK 03 AUDIO
TITLE "Two Kinds Of Love"
PERFORMER "Stevie Nicks"
REM COMPOSER ""
INDEX 01 08:33:72
TRACK 04 AUDIO
TITLE "Ooh My Love"
PERFORMER "Stevie Nicks"
REM COMPOSER ""
INDEX 01 13:20:27
TRACK 05 AUDIO
TITLE "Ghosts"
PERFORMER "Stevie Nicks"
REM COMPOSER ""
INDEX 01 18:24:12
TRACK 06 AUDIO
TITLE "Whole Lotta Trouble"
PERFORMER "Stevie Nicks"
REM COMPOSER ""
INDEX 01 23:18:45
TRACK 07 AUDIO
TITLE "Fire Burning"
PERFORMER "Stevie Nicks"
REM COMPOSER ""
INDEX 00 28:12:37
INDEX 01 28:13:57
TRACK 08 AUDIO
TITLE "Cry Wolf"
PERFORMER "Stevie Nicks"
REM COMPOSER ""
INDEX 01 31:30:17
TRACK 09 AUDIO
TITLE "Alice"
PERFORMER "Stevie Nicks"
REM COMPOSER ""
INDEX 01 35:40:02
TRACK 10 AUDIO
TITLE "Juliet"
PERFORMER "Stevie Nicks"
REM COMPOSER ""
INDEX 01 41:27:02
TRACK 11 AUDIO
TITLE "Doing The Best That I Can (Escape From Berlin)"
PERFORMER "Stevie Nicks"
REM COMPOSER ""
INDEX 00 46:17:27
INDEX 01 46:18:70
TRACK 12 AUDIO
TITLE "I Still Miss Someone (Blue Eyes)"
PERFORMER "Stevie Nicks"
REM COMPOSER ""
INDEX 00 51:53:65
INDEX 01 51:55:00
TRACK 13 AUDIO
TITLE "Has Anyone Ever Written Anything For You (Live)"
PERFORMER "Stevie Nicks"
REM COMPOSER ""
INDEX 00 56:04:32
INDEX 01 56:07:07
[свернуть]

Лог проверки качества

AUDIOCHECKER v2.0 beta (build 457) - by Dester - [Ссылки могут видеть только зарегистрированные пользователи. ]
~~~~~~~~~~~~~~~~~~~~~~~~~~~~~~~~~~
-=== НЕ РЕДАКТИРУЙТЕ ЭТОТ ФАЙЛ! ===-

Путь: ...\1989 - The Other Side Of The Mirror [CP32-5851]

1 -=- Stevie Nicks - The Other Side Of The Mirror.flac -=- MPEG (95%)

234534516
[свернуть]

Спектр частот

[свернуть]

Скачать Stevie Nicks - The Other Side of The Mirror

[Ссылки могут видеть только зарегистрированные пользователи. ]

password: sergych
[свернуть]

Контрольная сумма (хеш-сумма) архива

MD5: b58ec6ecf838e5b8bf2c7044d5cfabeb
[свернуть]
My opinion of release: 10/10
__________________
TAIFUN.Wings of Soul

Вверх
6 пользователя(ей) сказали cпасибо:
Показать список поблагодаривших
  #3
Старый 14.05.2017, 09:21
swint68
Меломан
Досье
 
Аватар для swint68
По умолчанию Re: Stevie Nicks - The Other Side of The Mirror

Спасибо, дружище!
Хорошей музыки не бывает много....

Вверх
2 пользователя(ей) сказали cпасибо:
sergych (14.05.2017), TAIFUN (15.05.2017)
  #4
Старый 14.05.2017, 20:28
burnett_s
Пользователь
Досье
 
Аватар для burnett_s
По умолчанию Re: Stevie Nicks - The Other Side of The Mirror

Thank you!


Последний раз редактировалось burnett_s, 14.05.2017 в 20:38.
Вверх
2 пользователя(ей) сказали cпасибо:
sergych (15.05.2017), TAIFUN (15.05.2017)
Похожие темы
Тема Автор Раздел Ответов Последнее сообщение
Альбом Stevie Nicks - The Wild Heart sergych Soft Rock 1 05.04.2015 22:44
Альбом Stevie Nicks - Bella Donna sergych Soft Rock 0 21.03.2015 13:48
Альбом Stevie Nicks - In Your Dreams sergych Soft Rock 0 19.03.2015 20:04
Саундтрек Белоснежка: Месть гномов / Mirror Mirror PUPOKIN Саундтреки 0 29.03.2012 11:11


Метки
1989 , rock , soft rock , stevie nicks , the other side of the mirror

Опции темы

Ваши права в разделе
Вы не можете создавать новые темы
Вы не можете отвечать в темах
Вы не можете прикреплять вложения
Вы не можете редактировать свои сообщения

Быстрый переход



Текущее время: 12:42. Часовой пояс GMT +3.
Powered by vBulletin® Version 3.8.7
Copyright ©2000 - 2017, vBulletin Solutions, Inc. Перевод: zCarot
© 2008 - 2017 Taifun With Song
Яндекс.Метрика