TAIFUN With Song
Навигация
Саундтреки Саундтреки к фильмам, анимации, играм, сериалам

А знаете ли Вы, что...
Какой наркотик, по распространённому мнению, оказал прямое влияние на выбор названия одной из песен Beatles?
«Когда Beatles записали песню "Lucy in the Sky with Diamonds", Джон Леннон объяснил происхождение названия песни тем, что так окрестил свой рисунок его сын Джулиан. Однако многие усмотрели в этом названии намёк на наркотик LSD, ведь именно такая аббревиатура складывалась из его первых букв, а BBC и вовсе запретило песню к ротации. Позже Пол Маккартни рассказал, что влияние LSD на эту песню довольно очевидно.»
 
Опции темы

  #1
Старый 25.10.2014, 10:29
sergych
Координатор
Досье
 
Аватар для sergych
Релиз Cirque Du Soleil - Alegria


1994 - Cirque du Soleil - Alegria




Исполнитель/Artist: Cirque du Soleil
Альбом/Album: Alegria
Год/Year: 1994
Жанр/Genre: Folk, Contemporary folk
Страна/Country: Соединённые Штаты
Рекорд-лейбл/Record label: RCA Victor
Номер в каталоге/Catalogue #: 09026-62701-2
Формат/Format: Free Lossless Audio Codec (*.flac)
Качество/Quality: Lossless
Тип рипа/RIP Type: image+.cue
Продолжительность/Length: 01:01:26
Источник/Source: Собственный рип
Размер/Size: 422.1 MB

Сканы в комплекте

Треклист

01. Alegria [0:05:51.38]
02. Vai Vedrai [0:04:34.20]
03. Kalandero [0:05:19.07]
04. Querer [0:04:34.08]
05. Irna [0:04:46.30]
06. Taruka [0:05:34.15]
07. Jeux d'enfants [0:04:41.07]
08. Mirko [0:05:06.38]
09. Icare [0:07:23.55]
10. Ibis [0:06:26.57]
11. Valsapena [0:04:00.18]
12. Nocturne [0:03:09.02]
[свернуть]

youtube.com

[свернуть]

EAC лог

Exact Audio Copy V1.0 beta 3 from 29. August 2011

EAC extraction logfile from 24. October 2014, 21:37

Cirque du Soleil / Alegria

Used drive : ATAPI iHAS124 D Adapter: 0 ID: 2

Read mode : Secure
Utilize accurate stream : Yes
Defeat audio cache : Yes
Make use of C2 pointers : No

Read offset correction : 6
Overread into Lead-In and Lead-Out : No
Fill up missing offset samples with silence : Yes
Delete leading and trailing silent blocks : No
Null samples used in CRC calculations : Yes
Used interface : Installed external ASPI interface

Used output format : User Defined Encoder
Selected bitrate : 1024 kBit/s
Quality : High
Add ID3 tag : No
Command line compressor : C:\Program Files (x86)\Exact Audio Copy\Flac\flac.exe
Additional command line options : -6 -V -T "ARTIST=%artist%" -T "TITLE=%title%" -T "ALBUM=%albumtitle%" -T "DATE=%year%" -T "TRACKNUMBER=%tracknr%" -T "GENRE=%genre%" -T "COMMENT=%comment%" -T "BAND=%albuminterpret%" -T "COMPOSER=%composer%" %haslyrics%--tag-from-file=LYRICS="%lyricsfile%"%haslyrics% -T "DISCNUMBER=%cdnumber%" -T "TOTALDISCS=%totalcds%" -T "TOTALTRACKS=%numtracks%" %hascover%--picture="%coverfile%"%hascover% %source% -o %dest%


TOC of the extracted CD

Track | Start | Length | Start sector | End sector
---------------------------------------------------------
1 | 0:00.00 | 5:51.38 | 0 | 26362
2 | 5:51.38 | 4:34.20 | 26363 | 46932
3 | 10:25.58 | 5:19.07 | 46933 | 70864
4 | 15:44.65 | 4:34.08 | 70865 | 91422
5 | 20:18.73 | 4:46.30 | 91423 | 112902
6 | 25:05.28 | 5:34.15 | 112903 | 137967
7 | 30:39.43 | 4:41.07 | 137968 | 159049
8 | 35:20.50 | 5:06.38 | 159050 | 182037
9 | 40:27.13 | 7:23.55 | 182038 | 215317
10 | 47:50.68 | 6:26.57 | 215318 | 244324
11 | 54:17.50 | 4:00.18 | 244325 | 262342
12 | 58:17.68 | 3:09.02 | 262343 | 276519


Range status and errors

Selected range

Filename D:\MultiMedia\Mp3\_Redo\_ENG\Cirque Du Soleil\1994 - Alegria [09026-62701-2]\Cirque du Soleil - Alegria.wav

Peak level 91.9 %
Extraction speed 9.8 X
Range quality 100.0 %
Test CRC A711A59A
Copy CRC A711A59A
Copy OK

No errors occurred


AccurateRip summary

Track 1 accurately ripped (confidence 17) [C84CEC1E] (AR v2)
Track 2 accurately ripped (confidence 17) [5A20B206] (AR v2)
Track 3 accurately ripped (confidence 17) [7F51327F] (AR v2)
Track 4 accurately ripped (confidence 17) [73FB66A1] (AR v2)
Track 5 accurately ripped (confidence 17) [6F5B3CB3] (AR v2)
Track 6 accurately ripped (confidence 17) [DBCCB508] (AR v2)
Track 7 accurately ripped (confidence 18) [2DFF089C] (AR v2)
Track 8 accurately ripped (confidence 18) [94BF9F74] (AR v2)
Track 9 accurately ripped (confidence 18) [0120E8B8] (AR v2)
Track 10 accurately ripped (confidence 18) [3DFD3C0A] (AR v2)
Track 11 accurately ripped (confidence 18) [E2A069E3] (AR v2)
Track 12 accurately ripped (confidence 18) [EE3032B4] (AR v2)

All tracks accurately ripped

End of status report
[свернуть]

Файл CUE

REM GENRE Soundtrack
REM DATE 1994
REM DISCID A60E660C
REM COMMENT "ExactAudioCopy v1.0b3"
PERFORMER "Cirque du Soleil"
TITLE "Alegria"
FILE "Cirque du Soleil - Alegria.flac" WAVE
TRACK 01 AUDIO
TITLE "Alegria"
PERFORMER "Cirque du Soleil"
INDEX 01 00:00:00
TRACK 02 AUDIO
TITLE "Vai Vedrai"
PERFORMER "Cirque du Soleil"
INDEX 00 05:49:30
INDEX 01 05:51:38
TRACK 03 AUDIO
TITLE "Kalandero"
PERFORMER "Cirque du Soleil"
INDEX 01 10:25:58
TRACK 04 AUDIO
TITLE "Querer"
PERFORMER "Cirque du Soleil"
INDEX 00 15:43:35
INDEX 01 15:44:65
TRACK 05 AUDIO
TITLE "Irna"
PERFORMER "Cirque du Soleil"
INDEX 01 20:18:73
TRACK 06 AUDIO
TITLE "Taruka"
PERFORMER "Cirque du Soleil"
INDEX 00 25:05:27
INDEX 01 25:05:28
TRACK 07 AUDIO
TITLE "Jeux d'enfants"
PERFORMER "Cirque du Soleil"
INDEX 00 30:38:55
INDEX 01 30:39:43
TRACK 08 AUDIO
TITLE "Mirko"
PERFORMER "Cirque du Soleil"
INDEX 00 35:20:38
INDEX 01 35:20:50
TRACK 09 AUDIO
TITLE "Icare"
PERFORMER "Cirque du Soleil"
INDEX 00 40:25:05
INDEX 01 40:27:13
TRACK 10 AUDIO
TITLE "Ibis"
PERFORMER "Cirque du Soleil"
INDEX 01 47:50:68
TRACK 11 AUDIO
TITLE "Valsapena"
PERFORMER "Cirque du Soleil"
INDEX 01 54:17:50
TRACK 12 AUDIO
TITLE "Nocturne"
PERFORMER "Cirque du Soleil"
INDEX 00 58:17:53
INDEX 01 58:17:68
[свернуть]

Лог проверки качества

AUDIOCHECKER v2.0 beta (build 457) - by Dester -
~~~~~~~~~~~~~~~~~~~~~~~~~~~~~~~~~~
-=== НЕ РЕДАКТИРУЙТЕ ЭТОТ ФАЙЛ! ===-

Путь: ...\1994 - Alegria [09026-62701-2]

1 -=- Cirque du Soleil - Alegria.flac -=- CDDA (100%)

152824484
[свернуть]

Спектр частот

[свернуть]

Скачать Cirque du Soleil - Alegria



password: sergych
[свернуть]
My opinion of release: 10/10

Release info RInfo

Музыкальное сопровождение из шоу Cirque du Soleil "Alegria", выпущенная отдельным альбомом. Музыка, написанная René Dupéré и великолепно исполненная Francesca Gagnon (которая, кстати, участвовала в представлении в качестве одного из персонажей), позволила номинироваться альбому на Грэмми.
За подробностями - к или
__________________
TAIFUN.Wings of Soul

Вверх
Пользователь сказал cпасибо:
vladzm (15.05.2015)
Похожие темы
Тема Автор Раздел Ответов Последнее сообщение
Саундтрек Cirque Du Soleil - O sergych Саундтреки 0 02.02.2016 18:51
Саундтрек Cirque Du Soleil - Dralion sergych Саундтреки 0 05.12.2015 12:18
Сборник Cirque Du Soleil - Le Best of Cirque du Soleil sergych Саундтреки 0 14.05.2015 19:57
Саундтрек Cirque Du Soleil - Mystere: Live in Las Vegas sergych Саундтреки 0 13.05.2015 21:35
Cirque du Soleil: Сказочный мир / Cirque du Soleil: Worlds Away (2012) HDRip maxy666 Киномания 0 30.03.2013 20:35


Метки
1994 , alegria , cirque du soleil , contemporary folk , folk , francesca gagnon

Опции темы

Ваши права в разделе
Вы не можете создавать новые темы
Вы не можете отвечать в темах
Вы не можете прикреплять вложения
Вы не можете редактировать свои сообщения

Быстрый переход



Текущее время: 17:45. Часовой пояс GMT +3.
Powered by vBulletin® Version 3.8.10
Copyright ©2000 - 2017, vBulletin Solutions, Inc. Перевод: zCarot
© 2008 - 2017 Taifun With Song
Яндекс.Метрика