TAIFUN With Song
Вернуться   TAIFUN With Song > Music (обменник) > Другие направления музыки > Classical
Расширенный поиск
Classical В этом разделе релизы на классическую музыку.

А знаете ли Вы, что...
Горький и Шаляпин пробовались в хор!
«Шаляпин и Горький практически в одно и то же время пробовались в хор. Горького взяли, Шаляпина нет.»
 
Опции темы

  #1
Старый 31.07.2014, 15:56
sergych
Координатор
Досье
 
Аватар для sergych
Релиз Andrea Bocelli - Aria: The Opera Album


1998(2005) - Andrea Bocelli - Aria: The Opera Album




Исполнитель/Artist: Andrea Bocelli
Альбом/Album: Aria: The Opera Album {Special Edition}
Год/Year: 1998
Ремастеринг/Remaster: 2005
Жанр/Genre: Classical, Opera
Страна/Country: Великобритания
Рекорд-лейбл/Record label: Sugarmusic / Philips
Номер в каталоге/Catalogue #: 475 729-5
Формат/Format: Free Lossless Audio Codec (*.flac)
Качество/Quality: Lossless
Тип рипа/RIP Type: image+.cue
Продолжительность/Length: 01:02:27
Источник/Source: Собственный рип
Размер/Size: 361.8 MB

Сканы в комплекте

Треклист

01. Questa o quella {Rigoletto} [0:01:47.44]
02. Che gelida manina {La boheme} [0:04:20.38]
03. Recondita armonia {Tosca} [0:02:58.37]
04. E lucevan le stelle... {Tosca} [0:02:52.38]
05. Addio, fiorito asil {Madama Butterfly} [0:01:51.50]
06. Come un bel di di maggio {Andrea Chenier} [0:03:18.25]
07. A te, o cara {I puritani} [0:03:06.00]
08. Di rigori armato il seno {Der Rosenkavalier} [0:02:10.00]
09. Amor ti vieta {Fedora} [0:01:52.00]
10. Ch'ella mi creda {La fanciulla del West} [0:02:01.00]
11. Cielo e mar! {La Gioconda} [0:04:36.00]
12. La dolcissima effigie {Adriana Lecouvreur} [0:02:13.00]
13. Musetta! - Tesa adorata {La boheme} [0:03:07.00]
14. Tombe degli avi miei - Dra poco a me ricovero {Lucia di Lammermoor} [0:06:53.47]
15. Pourqoui me reveiller {Werther} [0:03:06.28]
16. La fleur que tu m'avais jetee {Carmen} [0:04:20.00]
17. Pour mon ame {La fille du regiment} [0:02:14.47]
18. Di Quella Pira {Il trovatore} [0:03:21.46]
19. The Peral Fishers Duet (with Bryn Terfel) [0:06:17.29]
[свернуть]

youtube.com

[свернуть]

EAC лог

Exact Audio Copy V1.0 beta 3 from 29. August 2011

EAC extraction logfile from 31. July 2014, 12:29

Andrea Bocelli / The Opera Album Aria

Used drive : ATAPI iHAS124 D Adapter: 0 ID: 2

Read mode : Secure
Utilize accurate stream : Yes
Defeat audio cache : Yes
Make use of C2 pointers : No

Read offset correction : 6
Overread into Lead-In and Lead-Out : No
Fill up missing offset samples with silence : Yes
Delete leading and trailing silent blocks : No
Null samples used in CRC calculations : Yes
Used interface : Installed external ASPI interface

Used output format : User Defined Encoder
Selected bitrate : 1024 kBit/s
Quality : High
Add ID3 tag : No
Command line compressor : C:\Program Files (x86)\Exact Audio Copy\Flac\flac.exe
Additional command line options : -6 -V -T "ARTIST=%artist%" -T "TITLE=%title%" -T "ALBUM=%albumtitle%" -T "DATE=%year%" -T "TRACKNUMBER=%tracknr%" -T "GENRE=%genre%" -T "COMMENT=%comment%" -T "BAND=%albuminterpret%" -T "COMPOSER=%composer%" %haslyrics%--tag-from-file=LYRICS="%lyricsfile%"%haslyrics% -T "DISCNUMBER=%cdnumber%" -T "TOTALDISCS=%totalcds%" -T "TOTALTRACKS=%numtracks%" %hascover%--picture="%coverfile%"%hascover% %source% -o %dest%


TOC of the extracted CD

Track | Start | Length | Start sector | End sector
---------------------------------------------------------
1 | 0:00.00 | 1:47.44 | 0 | 8068
2 | 1:47.44 | 4:20.38 | 8069 | 27606
3 | 6:08.07 | 2:58.37 | 27607 | 40993
4 | 9:06.44 | 2:52.38 | 40994 | 53931
5 | 11:59.07 | 1:51.50 | 53932 | 62306
6 | 13:50.57 | 3:18.25 | 62307 | 77181
7 | 17:09.07 | 3:06.00 | 77182 | 91131
8 | 20:15.07 | 2:10.00 | 91132 | 100881
9 | 22:25.07 | 1:52.00 | 100882 | 109281
10 | 24:17.07 | 2:01.00 | 109282 | 118356
11 | 26:18.07 | 4:36.00 | 118357 | 139056
12 | 30:54.07 | 2:13.00 | 139057 | 149031
13 | 33:07.07 | 3:07.00 | 149032 | 163056
14 | 36:14.07 | 6:53.47 | 163057 | 194078
15 | 43:07.54 | 3:06.28 | 194079 | 208056
16 | 46:14.07 | 4:20.00 | 208057 | 227556
17 | 50:34.07 | 2:14.47 | 227557 | 237653
18 | 52:48.54 | 3:21.46 | 237654 | 252774
19 | 56:10.25 | 6:17.29 | 252775 | 281078


Range status and errors

Selected range

Filename C:\mm\Andrea Bocelli\1998(2005) - Aria. The Opera Album [475 729-5]\Andrea Bocelli - The Opera Album Aria.wav

Peak level 100.0 %
Extraction speed 9.1 X
Range quality 100.0 %
Test CRC E5E936BD
Copy CRC E5E936BD
Copy OK

No errors occurred


AccurateRip summary

Track 1 accurately ripped (confidence 7) [BF70C2BD] (AR v2)
Track 2 accurately ripped (confidence 7) [A1878D96] (AR v2)
Track 3 accurately ripped (confidence 7) [53D4E5E3] (AR v2)
Track 4 accurately ripped (confidence 7) [665452C1] (AR v2)
Track 5 accurately ripped (confidence 7) [CFB0799C] (AR v2)
Track 6 accurately ripped (confidence 7) [A019CC29] (AR v2)
Track 7 accurately ripped (confidence 7) [0E70DCE6] (AR v2)
Track 8 accurately ripped (confidence 7) [05099A1B] (AR v2)
Track 9 accurately ripped (confidence 7) [0985281B] (AR v2)
Track 10 accurately ripped (confidence 7) [9F39C565] (AR v2)
Track 11 accurately ripped (confidence 7) [0D0F9DCA] (AR v2)
Track 12 accurately ripped (confidence 7) [F432E246] (AR v2)
Track 13 accurately ripped (confidence 7) [9F40AAA8] (AR v2)
Track 14 accurately ripped (confidence 7) [7858BB13] (AR v2)
Track 15 accurately ripped (confidence 7) [C60336D1] (AR v2)
Track 16 accurately ripped (confidence 7) [E56B45C9] (AR v2)
Track 17 accurately ripped (confidence 7) [1BACBF9A] (AR v2)
Track 18 accurately ripped (confidence 7) [7480C3EF] (AR v2)
Track 19 accurately ripped (confidence 7) [CB0E3ED5] (AR v2)

All tracks accurately ripped

End of status report
[свернуть]

Файл CUE

REM GENRE Opera
REM DATE 2005
REM DISCID 120EA313
REM COMMENT "ExactAudioCopy v1.0b3"
PERFORMER "Andrea Bocelli"
TITLE "The Opera Album Aria"
FILE "Andrea Bocelli - The Opera Album Aria.flac" WAVE
TRACK 01 AUDIO
TITLE "Questa o quella {Rigoletto}"
PERFORMER "Andrea Bocelli"
INDEX 01 00:00:00
TRACK 02 AUDIO
TITLE "Che gelida manina {La boheme}"
PERFORMER "Andrea Bocelli"
INDEX 01 01:47:44
TRACK 03 AUDIO
TITLE "Recondita armonia {Tosca}"
PERFORMER "Andrea Bocelli"
INDEX 01 06:08:07
TRACK 04 AUDIO
TITLE "E lucevan le stelle... {Tosca}"
PERFORMER "Andrea Bocelli"
INDEX 01 09:06:44
TRACK 05 AUDIO
TITLE "Addio, fiorito asil {Madama Butterfly}"
PERFORMER "Andrea Bocelli"
INDEX 01 11:59:07
TRACK 06 AUDIO
TITLE "Come un bel di di maggio {Andrea Chenier}"
PERFORMER "Andrea Bocelli"
INDEX 01 13:50:57
TRACK 07 AUDIO
TITLE "A te, o cara {I puritani}"
PERFORMER "Andrea Bocelli"
INDEX 01 17:09:07
TRACK 08 AUDIO
TITLE "Di rigori armato il seno {Der Rosenkavalier}"
PERFORMER "Andrea Bocelli"
INDEX 01 20:15:07
TRACK 09 AUDIO
TITLE "Amor ti vieta {Fedora}"
PERFORMER "Andrea Bocelli"
INDEX 01 22:25:07
TRACK 10 AUDIO
TITLE "Ch'ella mi creda {La fanciulla del West}"
PERFORMER "Andrea Bocelli"
INDEX 01 24:17:07
TRACK 11 AUDIO
TITLE "Cielo e mar! {La Gioconda}"
PERFORMER "Andrea Bocelli"
INDEX 01 26:18:07
TRACK 12 AUDIO
TITLE "La dolcissima effigie {Adriana Lecouvreur}"
PERFORMER "Andrea Bocelli"
INDEX 01 30:54:07
TRACK 13 AUDIO
TITLE "Musetta! - Tesa adorata {La boheme}"
PERFORMER "Andrea Bocelli"
INDEX 01 33:07:07
TRACK 14 AUDIO
TITLE "Tombe degli avi miei - Dra poco a me ricovero {Lucia di Lammermoor}"
PERFORMER "Andrea Bocelli"
INDEX 01 36:14:07
TRACK 15 AUDIO
TITLE "Pourqoui me reveiller {Werther}"
PERFORMER "Andrea Bocelli"
INDEX 01 43:07:54
TRACK 16 AUDIO
TITLE "La fleur que tu m'avais jetee {Carmen}"
PERFORMER "Andrea Bocelli"
INDEX 01 46:14:07
TRACK 17 AUDIO
TITLE "Pour mon ame {La fille du regiment}"
PERFORMER "Andrea Bocelli"
INDEX 01 50:34:07
TRACK 18 AUDIO
TITLE "Di Quella Pira {Il trovatore}"
PERFORMER "Andrea Bocelli"
INDEX 01 52:48:54
TRACK 19 AUDIO
TITLE "The Peral Fishers Duet (with Bryn Terfel)"
PERFORMER "Andrea Bocelli"
INDEX 01 56:10:25
[свернуть]

Лог проверки качества

AUDIOCHECKER v2.0 beta (build 457) - by Dester - [Ссылки могут видеть только зарегистрированные пользователи. ]
~~~~~~~~~~~~~~~~~~~~~~~~~~~~~~~~~~
-=== НЕ РЕДАКТИРУЙТЕ ЭТОТ ФАЙЛ! ===-

Путь: ...\1998(2005) - Aria. The Opera Album [475 729-5]

1 -=- Andrea Bocelli - The Opera Album Aria.flac -=- CDDA (43%)

50427988
[свернуть]

Спектр частот

[свернуть]

Скачать Andrea Bocelli - Aria: The Opera Album

[Ссылки могут видеть только зарегистрированные пользователи. ]

password: sergych
[свернуть]
My opinion of release: 10/10
__________________
TAIFUN.Wings of Soul

Вверх
Похожие темы
Тема Автор Раздел Ответов Последнее сообщение
Альбом Andrea Bocelli - Andrea sergych Зарубежная Поп-Музыка 0 30.07.2014 20:32
Сборник Andrea Bocelli - Victoria's Secret Presents. Mistero Dell' Amore sergych Зарубежная Поп-Музыка 0 08.06.2014 20:30
Релиз Andrea Bocelli - Carmen: Duets & Arias PUPOKIN Classical 0 25.08.2010 11:25
Релиз Andrea Bocelli - My Christmas PUPOKIN Classical 0 05.11.2009 09:59
Альбом Andrea Bocelli - Incanto PUPOKIN Classical 0 01.11.2008 13:49


Метки
1998 , andrea bocelli , aria: the opera album , classical , opera

Опции темы

Ваши права в разделе
Вы не можете создавать новые темы
Вы не можете отвечать в темах
Вы не можете прикреплять вложения
Вы не можете редактировать свои сообщения

Быстрый переход



Текущее время: 01:41. Часовой пояс GMT +3.
Powered by vBulletin® Version 3.8.7
Copyright ©2000 - 2017, vBulletin Solutions, Inc. Перевод: zCarot
© 2008 - 2017 Taifun With Song
Яндекс.Метрика