TAIFUN With Song
Навигация
Вернуться   TAIFUN With Song > Music (обменник) > Другие направления музыки > Саундтреки
Расширенный поиск
Саундтреки Саундтреки к фильмам, анимации, играм, сериалам

А знаете ли Вы, что...
Чем прославился Боб Марли до того, как стать музыкантом?
«Знаменитый ямайский регги-музыкант Боб Марли в детстве был известен в своей деревне как талантливый предсказатель по линиям на ладонях.»
 
Опции темы

  #1
Старый 21.05.2014, 19:54
sergych
Координатор
Досье
 
Аватар для sergych
Релиз Eric Clapton - Music From The Motion Picture Soundtrack ''Rush''


1992 - Eric Clapton - Music From The Motion Picture Soundtrack ''Rush''




Исполнитель/Artist: Eric Clapton
Альбом/Album: Music From The Motion Picture Soundtrack ''Rush''
Год/Year: 1992
Жанр/Genre: rock, blues rock, ballad, instrumental
Страна/Country: Соединённые Штаты
Рекорд-лейбл/Record label: Reprise Records
Номер в каталоге/Catalogue #: 9 26794-2
Формат/Format: Free Lossless Audio Codec (*.flac)
Качество/Quality: Lossless
Тип рипа/RIP Type: image+.cue
Продолжительность/Length: 00:41:46
Источник/Source: Собственный рип
Размер/Size: 253.6 MB

Сканы в комплекте

Треклист

01. New Recruit [0:01:31.70]
02. Tracks And Lines [0:03:01.63]
03. Realization [0:02:41.60]
04. Kristen And Jim [0:03:40.20]
05. Preludin Fugue [0:03:20.57]
06. Cold Turkey [0:02:24.70]
07. Will Gaines [0:03:50.25]
08. Help Me Up [0:05:53.35]
09. Don't Know Which Way To Go (featuring Buddy Guy on lead vocals) [0:10:48.48]
10. Tears In Heaven [0:04:32.20]
[свернуть]

youtube.com

[свернуть]

EAC лог

Exact Audio Copy V1.0 beta 3 from 29. August 2011

EAC extraction logfile from 20. May 2014, 23:05

Eric Clapton / Rush (Soundtrack)

Used drive : ATAPI iHAS124 D Adapter: 0 ID: 2

Read mode : Secure
Utilize accurate stream : Yes
Defeat audio cache : Yes
Make use of C2 pointers : No

Read offset correction : 6
Overread into Lead-In and Lead-Out : No
Fill up missing offset samples with silence : Yes
Delete leading and trailing silent blocks : No
Null samples used in CRC calculations : Yes
Used interface : Installed external ASPI interface

Used output format : User Defined Encoder
Selected bitrate : 1024 kBit/s
Quality : High
Add ID3 tag : No
Command line compressor : C:\Program Files (x86)\Exact Audio Copy\Flac\flac.exe
Additional command line options : -6 -V -T "ARTIST=%artist%" -T "TITLE=%title%" -T "ALBUM=%albumtitle%" -T "DATE=%year%" -T "TRACKNUMBER=%tracknr%" -T "GENRE=%genre%" -T "COMMENT=%comment%" -T "BAND=%albuminterpret%" -T "COMPOSER=%composer%" %haslyrics%--tag-from-file=LYRICS="%lyricsfile%"%haslyrics% -T "DISCNUMBER=%cdnumber%" -T "TOTALDISCS=%totalcds%" -T "TOTALTRACKS=%numtracks%" %hascover%--picture="%coverfile%"%hascover% %source% -o %dest%


TOC of the extracted CD

Track | Start | Length | Start sector | End sector
---------------------------------------------------------
1 | 0:00.32 | 1:31.70 | 32 | 6926
2 | 1:32.27 | 3:01.63 | 6927 | 20564
3 | 4:34.15 | 2:41.60 | 20565 | 32699
4 | 7:16.00 | 3:40.20 | 32700 | 49219
5 | 10:56.20 | 3:20.57 | 49220 | 64276
6 | 14:17.02 | 2:24.70 | 64277 | 75146
7 | 16:41.72 | 3:50.25 | 75147 | 92421
8 | 20:32.22 | 5:53.35 | 92422 | 118931
9 | 26:25.57 | 10:48.48 | 118932 | 167579
10 | 37:14.30 | 4:32.20 | 167580 | 187999


Range status and errors

Selected range

Filename C:\mm\Eric Clapton\1992 - Music From The Motion Picture Soundtrack ''Rush'' [9 26794-2]\Eric Clapton - Rush (Soundtrack).wav

Peak level 100.0 %
Extraction speed 2.9 X
Range quality 100.0 %
Test CRC 5A9C892F
Copy CRC 5A9C892F
Copy OK

No errors occurred


AccurateRip summary

Track 1 accurately ripped (confidence 57) [B24EDF33] (AR v2)
Track 2 accurately ripped (confidence 57) [A2F51A8A] (AR v2)
Track 3 accurately ripped (confidence 57) [324C9981] (AR v2)
Track 4 accurately ripped (confidence 57) [ECA4803B] (AR v2)
Track 5 accurately ripped (confidence 57) [D0132B6A] (AR v2)
Track 6 accurately ripped (confidence 57) [91AE3C83] (AR v2)
Track 7 accurately ripped (confidence 57) [EB71BB4E] (AR v2)
Track 8 accurately ripped (confidence 57) [53C8573B] (AR v2)
Track 9 accurately ripped (confidence 56) [C123E151] (AR v2)
Track 10 accurately ripped (confidence 58) [EF054F63] (AR v2)

All tracks accurately ripped

End of status report
[свернуть]

Файл CUE

REM GENRE Soundtrack
REM DATE 1992
REM DISCID 8609CA0A
REM COMMENT "ExactAudioCopy v1.0b3"
PERFORMER "Eric Clapton"
TITLE "Rush (Soundtrack)"
FILE "Eric Clapton - Rush (Soundtrack).flac" WAVE
TRACK 01 AUDIO
TITLE "New Recruit"
PERFORMER "Eric Clapton"
INDEX 00 00:00:00
INDEX 01 00:00:32
TRACK 02 AUDIO
TITLE "Tracks And Lines"
PERFORMER "Eric Clapton"
INDEX 00 01:32:20
INDEX 01 01:32:27
TRACK 03 AUDIO
TITLE "Realization"
PERFORMER "Eric Clapton"
INDEX 01 04:34:15
TRACK 04 AUDIO
TITLE "Kristen And Jim"
PERFORMER "Eric Clapton"
INDEX 01 07:16:00
TRACK 05 AUDIO
TITLE "Preludin Fugue"
PERFORMER "Eric Clapton"
INDEX 01 10:56:20
TRACK 06 AUDIO
TITLE "Cold Turkey"
PERFORMER "Eric Clapton"
INDEX 00 14:16:27
INDEX 01 14:17:02
TRACK 07 AUDIO
TITLE "Will Gaines"
PERFORMER "Eric Clapton"
INDEX 00 16:40:05
INDEX 01 16:41:72
TRACK 08 AUDIO
TITLE "Help Me Up"
PERFORMER "Eric Clapton"
INDEX 00 20:31:22
INDEX 01 20:32:22
TRACK 09 AUDIO
TITLE "Don't Know Which Way To Go"
PERFORMER "Eric Clapton"
INDEX 01 26:25:57
TRACK 10 AUDIO
TITLE "Tears In Heaven"
PERFORMER "Eric Clapton"
INDEX 00 37:14:25
INDEX 01 37:14:30
[свернуть]

Лог проверки качества

AUDIOCHECKER v2.0 beta (build 457) - by Dester -
~~~~~~~~~~~~~~~~~~~~~~~~~~~~~~~~~~
-=== НЕ РЕДАКТИРУЙТЕ ЭТОТ ФАЙЛ! ===-

Путь: ...\1992 - Music From The Motion Picture Soundtrack ''Rush'' [9 26794-2]

1 -=- Eric Clapton - Rush (Soundtrack).flac -=- CDDA (99%)

250689588
[свернуть]

Спектр частот

[свернуть]

Скачать Eric Clapton - Music From The Motion Picture Soundtrack ''Rush''



password: sergych
[свернуть]
My opinion of release: 10/10
__________________
TAIFUN.Wings of Soul

Вверх
Похожие темы
Тема Автор Раздел Ответов Последнее сообщение
Сборник Eric Clapton - Clapton Chronicles: The Best Of Eric Clapton sergych Blues Rock 1 16.06.2017 21:36
Сборник Eric Clapton - The Cream of Clapton sergych Blues Rock 0 01.01.2014 11:38
Сборник Eric Clapton - Lexus Presents. Clapton Unleaded sergych Blues Rock 0 31.12.2013 20:21
Альбом Eric Clapton - Clapton rus.lan Blues Rock 1 21.05.2013 13:48
Релиз Music picture - Perfect Conjugal Bliss LUСIAN New age 0 24.10.2009 19:08


Метки
1992 , ballad , blues rock , eric clapton , instrumental , music from the motion picture soundtrack ''rush'' , rock

Опции темы

Ваши права в разделе
Вы не можете создавать новые темы
Вы не можете отвечать в темах
Вы не можете прикреплять вложения
Вы не можете редактировать свои сообщения

Быстрый переход



Текущее время: 23:15. Часовой пояс GMT +3.
Powered by vBulletin® Version 3.8.10
Copyright ©2000 - 2017, vBulletin Solutions, Inc. Перевод: zCarot
© 2008 - 2017 Taifun With Song
Яндекс.Метрика