TAIFUN With Song
Вернуться   TAIFUN With Song > Music (обменник) > Rock > Pop Rock
Расширенный поиск
Pop Rock Поп-рок — жанр музыки, объединяющий элементы поп-музыки и рок-музыки. Песни характеризуются простой структурой, запоминающимися мелодиями, повторением музыкальных фраз (от попа), использованием в качестве основных инструментов электрогитар и ударных и агрессивным настроением (от рока).

А знаете ли Вы, что...
Кто начал писать музыку в 5 лет?
«Вольфганг Амадей Моцарт начал сочинять музыку в 5 лет.»
 
Опции темы

  #1
Старый 08.03.2014, 21:50
sergych
Координатор
Досье
 
Аватар для sergych
Релиз Sting - Mercury Falling


1996 - Sting - Mercury Falling




Исполнитель/Artist: Sting
Альбом/Album: Mercury Falling
Год/Year: 1996
Жанр/Genre: Rock, adult contemporary, country
Страна/Country: Соединённые Штаты
Рекорд-лейбл/Record label: A&M Records
Номер в каталоге/Catalogue #: CD-0483
Формат/Format: Free Lossless Audio Codec (*.flac)
Качество/Quality: Lossless
Тип рипа/RIP Type: image+.cue
Продолжительность/Length: 00:48:16
Источник/Source: Собственный рип
Размер/Size: 327.1 MB

Сканы в комплекте

Треклист

01. The Hounds of Winter [0:05:27.25]
02. I Hung My Head [0:04:40.63]
03. Let Your Soul Be Your Pilot [0:06:43.37]
04. I Was Brought To My Senses [0:05:50.08]
05. You Still Touch Me [0:03:46.55]
06. I'm So Happy I Can't Stop Crying [0:03:57.20]
07. All Four Seasons [0:04:29.07]
08. La Belle Dame Sans Regrets [0:05:16.53]
09. Valparaiso [0:05:27.47]
10. Lithium Sunset [0:02:37.33]
[свернуть]

youtube.com

[свернуть]

Исполнители/Performers

Sting – vocals, bass
Dominic Miller – guitars
Vinnie Colaiuta – drums
Kenny Kirkland – keyboards
Branford Marsalis – saxophone
Andrew Love – saxophone
Gerry Richardson – Hammond organ on "Let Your Soul Be Your Pilot"
Tony Walters – vocals
Lance Ellington – vocals
Shirley Lewis – vocals
East London Gospel Choir – vocals
Kathryn Tickell – Northumbrian pipes, fiddle
B.J. Cole – pedal steel
Wayne Jackson – trumpet
[свернуть]

EAC лог

Exact Audio Copy V1.0 beta 3 from 29. August 2011

EAC extraction logfile from 8. March 2014, 23:05

Sting / Mercury Falling

Used drive : ATAPI iHAS124 D Adapter: 0 ID: 2

Read mode : Secure
Utilize accurate stream : Yes
Defeat audio cache : Yes
Make use of C2 pointers : Yes

Read offset correction : 6
Overread into Lead-In and Lead-Out : No
Fill up missing offset samples with silence : Yes
Delete leading and trailing silent blocks : No
Null samples used in CRC calculations : Yes
Used interface : Installed external ASPI interface

Used output format : User Defined Encoder
Selected bitrate : 1024 kBit/s
Quality : High
Add ID3 tag : No
Command line compressor : C:\Program Files (x86)\Exact Audio Copy\Flac\flac.exe
Additional command line options : -6 -V -T "ARTIST=%artist%" -T "TITLE=%title%" -T "ALBUM=%albumtitle%" -T "DATE=%year%" -T "TRACKNUMBER=%tracknr%" -T "GENRE=%genre%" -T "COMMENT=%comment%" -T "BAND=%albuminterpret%" -T "COMPOSER=%composer%" %haslyrics%--tag-from-file=LYRICS="%lyricsfile%"%haslyrics% -T "DISCNUMBER=%cdnumber%" -T "TOTALDISCS=%totalcds%" -T "TOTALTRACKS=%numtracks%" %hascover%--picture="%coverfile%"%hascover% %source% -o %dest%


TOC of the extracted CD

Track | Start | Length | Start sector | End sector
---------------------------------------------------------
1 | 0:00.32 | 5:27.25 | 32 | 24581
2 | 5:27.57 | 4:40.63 | 24582 | 45644
3 | 10:08.45 | 6:43.37 | 45645 | 75906
4 | 16:52.07 | 5:50.08 | 75907 | 102164
5 | 22:42.15 | 3:46.55 | 102165 | 119169
6 | 26:28.70 | 3:57.20 | 119170 | 136964
7 | 30:26.15 | 4:29.07 | 136965 | 157146
8 | 34:55.22 | 5:16.53 | 157147 | 180899
9 | 40:12.00 | 5:27.47 | 180900 | 205471
10 | 45:39.47 | 2:37.33 | 205472 | 217279


Range status and errors

Selected range

Filename C:\mm\Sting\1996 - Mercury Falling [CD-0483]\Sting - Mercury Falling.wav

Peak level 99.4 %
Extraction speed 14.1 X
Range quality 100.0 %
Test CRC 3131A283
Copy CRC 3131A283
Copy OK

No errors occurred


AccurateRip summary

Track 1 accurately ripped (confidence 28) [1FDF19D3] (AR v2)
Track 2 accurately ripped (confidence 28) [8B25853E] (AR v2)
Track 3 accurately ripped (confidence 27) [CD899D96] (AR v2)
Track 4 accurately ripped (confidence 28) [70280459] (AR v2)
Track 5 accurately ripped (confidence 28) [02CED52A] (AR v2)
Track 6 accurately ripped (confidence 28) [D548658C] (AR v2)
Track 7 accurately ripped (confidence 28) [271C7870] (AR v2)
Track 8 accurately ripped (confidence 28) [07774467] (AR v2)
Track 9 accurately ripped (confidence 28) [7320AEE8] (AR v2)
Track 10 accurately ripped (confidence 28) [B44E7CB9] (AR v2)

All tracks accurately ripped

End of status report
[свернуть]

Файл CUE

REM GENRE Rock
REM DATE 1996
REM DISCID 780B510A
REM COMMENT "ExactAudioCopy v1.0b3"
PERFORMER "Sting"
TITLE "Mercury Falling"
FILE "Sting - Mercury Falling.flac" WAVE
TRACK 01 AUDIO
TITLE "The Hounds of Winter"
PERFORMER "Sting"
INDEX 00 00:00:00
INDEX 01 00:00:32
TRACK 02 AUDIO
TITLE "I Hung My Head"
PERFORMER "Sting"
INDEX 01 05:27:57
TRACK 03 AUDIO
TITLE "Let Your Soul Be Your Pilot"
PERFORMER "Sting"
INDEX 00 10:08:44
INDEX 01 10:08:45
TRACK 04 AUDIO
TITLE "I Was Brought To My Senses"
PERFORMER "Sting"
INDEX 00 16:50:67
INDEX 01 16:52:07
TRACK 05 AUDIO
TITLE "You Still Touch Me"
PERFORMER "Sting"
INDEX 00 22:41:02
INDEX 01 22:42:15
TRACK 06 AUDIO
TITLE "I'm So Happy I Can't Stop Crying"
PERFORMER "Sting"
INDEX 01 26:28:70
TRACK 07 AUDIO
TITLE "All Four Seasons"
PERFORMER "Sting"
INDEX 00 30:25:64
INDEX 01 30:26:15
TRACK 08 AUDIO
TITLE "La Belle Dame Sans Regrets"
PERFORMER "Sting"
INDEX 00 34:54:44
INDEX 01 34:55:22
TRACK 09 AUDIO
TITLE "Valparaiso"
PERFORMER "Sting"
INDEX 01 40:12:00
TRACK 10 AUDIO
TITLE "Lithium Sunset"
PERFORMER "Sting"
INDEX 00 45:39:37
INDEX 01 45:39:47
[свернуть]

Лог проверки качества

AUDIOCHECKER v2.0 beta (build 457) - by Dester -
~~~~~~~~~~~~~~~~~~~~~~~~~~~~~~~~~~
-=== НЕ РЕДАКТИРУЙТЕ ЭТОТ ФАЙЛ! ===-

Путь: ...\1996 - Mercury Falling [CD-0483]

1 -=- Sting - Mercury Falling.flac -=- CDDA (100%)

226132900
[свернуть]

Спектр частот

[свернуть]

Скачать Sting - Mercury Falling



password: sergych
[свернуть]
My opinion of release: 10/10
__________________
TAIFUN.Wings of Soul

Вверх
2 пользователя(ей) сказали cпасибо:
johnsilver (09.06.2017), swint68 (09.06.2017)
  #2
Старый 08.06.2017, 19:14
sergych
Координатор
Досье
 
Аватар для sergych
Релиз Re: Sting - Mercury Falling


1996 - Sting - Mercury Falling




Исполнитель/Artist: Sting
Альбом/Album: Mercury Falling
Год/Year: 1996
Жанр/Genre: Pop rock, adult contemporary, country rock
Страна/Country: Германия
Рекорд-лейбл/Record label: A&M Records
Номер в каталоге/Catalogue #: 540 486-2
Формат/Format: Free Lossless Audio Codec (*.flac)
Качество/Quality: Lossless
Тип рипа/RIP Type: image+.cue
Продолжительность/Length: 00:52:24
Источник/Source: Собственный рип
Размер/Size: 393.8 MB

Сканы в комплекте

Треклист

01. The Hounds Of Winter [0:05:26.65]
02. I Hung My Head [0:04:40.60]
03. Let Your Soul Be Your Pilot [0:06:43.37]
04. I Was Brought To My Senses [0:05:50.10]
05. You Still Touch Me [0:03:46.53]
06. I'm So Happy I Can't Stop Crying [0:03:57.20]
07. All Four Seasons [0:04:28.30]
08. Twenty Five To Midnight [0:04:08.07]
09. La Belle Dame Sans Regrets [0:05:16.53]
10. Valparaiso [0:05:27.45]
11. Lithium Sunset [0:02:37.60]
[свернуть]

youtube.com

[свернуть]

Исполнители/Performers

The Band
Sting – vocals, bass
Dominic Miller – guitars
Kenny Kirkland – keyboards
Vinnie Colaiuta – drums

Also appearing
Branford Marsalis – saxophone
B. J. Cole – pedal steel guitar
Kathryn Tickell – Northumbrian pipes, fiddle
Andrew Love – saxophone
Wayne Jackson – trumpet
Gerry Richardson – Hammond organ on "Let Your Soul Be Your Pilot"
Additional vocals – Lance Ellington, Shirley Lewis, Monica Reed Price, East London Gospel Choir
[свернуть]

EAC лог

Exact Audio Copy V1.3 from 2. September 2016

EAC extraction logfile from 8. June 2017, 19:54

Sting / Mercury Falling

Used drive : PLEXTOR DVDR PX-716A Adapter: 1 ID: 0

Read mode : Secure
Utilize accurate stream : Yes
Defeat audio cache : Yes
Make use of C2 pointers : No

Read offset correction : 30
Overread into Lead-In and Lead-Out : No
Fill up missing offset samples with silence : Yes
Delete leading and trailing silent blocks : No
Null samples used in CRC calculations : Yes
Used interface : Native Win32 interface for Win NT & 2000

Used output format : User Defined Encoder
Selected bitrate : 1024 kBit/s
Quality : High
Add ID3 tag : No
Command line compressor : C:\Program Files (x86)\Exact Audio Copy\Flac\flac.exe
Additional command line options : -6 -V -T "ARTIST=%artist%" -T "TITLE=%title%" -T "ALBUM=%albumtitle%" -T "DATE=%year%" -T "TRACKNUMBER=%tracknr%" -T "GENRE=%genre%" -T "COMMENT=%comment%" -T "BAND=%albuminterpret%" -T "ALBUMARTIST=%albuminterpret%" -T "COMPOSER=%composer%" %haslyrics%--tag-from-file=LYRICS="%lyricsfile%"%haslyrics% -T "DISCNUMBER=%cdnumber%" -T "TOTALDISCS=%totalcds%" -T "TOTALTRACKS=%numtracks%" %hascover%--picture="%coverfile%"%hascover% %source% -o %dest%


TOC of the extracted CD

Track | Start | Length | Start sector | End sector
---------------------------------------------------------
1 | 0:00.00 | 5:26.65 | 0 | 24514
2 | 5:26.65 | 4:40.60 | 24515 | 45574
3 | 10:07.50 | 6:43.37 | 45575 | 75836
4 | 16:51.12 | 5:50.10 | 75837 | 102096
5 | 22:41.22 | 3:46.53 | 102097 | 119099
6 | 26:28.00 | 3:57.20 | 119100 | 136894
7 | 30:25.20 | 4:28.30 | 136895 | 157024
8 | 34:53.50 | 4:08.07 | 157025 | 175631
9 | 39:01.57 | 5:16.53 | 175632 | 199384
10 | 44:18.35 | 5:27.45 | 199385 | 223954
11 | 49:46.05 | 2:37.60 | 223955 | 235789


Range status and errors

Selected range

Filename C:\mm\Sting\1996 - Mercury Falling [540 486-2]\Sting - Mercury Falling.wav

Peak level 99.4 %
Extraction speed 10.0 X
Range quality 100.0 %
Test CRC 7A172A8A
Copy CRC 7A172A8A
Copy OK

No errors occurred


AccurateRip summary

Track 1 accurately ripped (confidence 200) [C4E84EA7] (AR v2)
Track 2 accurately ripped (confidence 200) [BC7791AE] (AR v2)
Track 3 accurately ripped (confidence 200) [BF729C8E] (AR v2)
Track 4 accurately ripped (confidence 200) [E16D42D0] (AR v2)
Track 5 accurately ripped (confidence 200) [39C232CD] (AR v2)
Track 6 accurately ripped (confidence 200) [B04A8615] (AR v2)
Track 7 accurately ripped (confidence 200) [348E5A4A] (AR v2)
Track 8 accurately ripped (confidence 200) [515D890F] (AR v2)
Track 9 accurately ripped (confidence 200) [9ED3D12C] (AR v2)
Track 10 accurately ripped (confidence 200) [5796E2ED] (AR v2)
Track 11 accurately ripped (confidence 200) [C6F7B8EB] (AR v2)

All tracks accurately ripped

End of status report

---- CUETools DB Plugin V2.1.6

[CTDB TOCID: NHnEwL6aIjYQO_mrvoO6rjaXGVo-] found
Submit result: NHnEwL6aIjYQO_mrvoO6rjaXGVo- has been confirmed, NHnEwL6aIjYQO_mrvoO6rjaXGVo- has been confirmed
Track | CTDB Status
1 | (585/588) Accurately ripped
2 | (582/588) Accurately ripped
3 | (583/588) Accurately ripped
4 | (583/588) Accurately ripped
5 | (586/588) Accurately ripped
6 | (583/588) Accurately ripped
7 | (583/588) Accurately ripped
8 | (583/588) Accurately ripped
9 | (585/588) Accurately ripped
10 | (579/588) Accurately ripped
11 | (581/588) Accurately ripped
[свернуть]

Файл CUE

REM GENRE Rock
REM DATE 1996
REM DISCID 960C470B
REM COMMENT "ExactAudioCopy v1.3"
PERFORMER "Sting"
TITLE "Mercury Falling"
REM COMPOSER ""
FILE "Sting - Mercury Falling.flac" WAVE
TRACK 01 AUDIO
TITLE "The Hounds Of Winter"
PERFORMER "Sting"
REM COMPOSER ""
INDEX 01 00:00:00
TRACK 02 AUDIO
TITLE "I Hung My Head"
PERFORMER "Sting"
REM COMPOSER ""
INDEX 01 05:26:65
TRACK 03 AUDIO
TITLE "Let Your Soul Be Your Pilot"
PERFORMER "Sting"
REM COMPOSER ""
INDEX 00 10:07:27
INDEX 01 10:07:50
TRACK 04 AUDIO
TITLE "I Was Brought To My Senses"
PERFORMER "Sting"
REM COMPOSER ""
INDEX 00 16:49:52
INDEX 01 16:51:12
TRACK 05 AUDIO
TITLE "You Still Touch Me"
PERFORMER "Sting"
REM COMPOSER ""
INDEX 00 22:39:57
INDEX 01 22:41:22
TRACK 06 AUDIO
TITLE "I'm So Happy I Can't Stop Crying"
PERFORMER "Sting"
REM COMPOSER ""
INDEX 00 26:27:62
INDEX 01 26:28:00
TRACK 07 AUDIO
TITLE "All Four Seasons"
PERFORMER "Sting"
REM COMPOSER ""
INDEX 00 30:24:47
INDEX 01 30:25:20
TRACK 08 AUDIO
TITLE "Twenty Five To Midnight"
PERFORMER "Sting"
REM COMPOSER ""
INDEX 00 34:53:15
INDEX 01 34:53:50
TRACK 09 AUDIO
TITLE "La Belle Dame Sans Regrets"
PERFORMER "Sting"
REM COMPOSER ""
INDEX 00 39:01:22
INDEX 01 39:01:57
TRACK 10 AUDIO
TITLE "Valparaiso"
PERFORMER "Sting"
REM COMPOSER ""
INDEX 01 44:18:35
TRACK 11 AUDIO
TITLE "Lithium Sunset"
PERFORMER "Sting"
REM COMPOSER ""
INDEX 00 49:45:47
INDEX 01 49:46:05
[свернуть]

Лог проверки качества

AUDIOCHECKER v2.0 beta (build 457) - by Dester -
~~~~~~~~~~~~~~~~~~~~~~~~~~~~~~~~~~
-=== НЕ РЕДАКТИРУЙТЕ ЭТОТ ФАЙЛ! ===-

Путь: ...\1996 - Mercury Falling [540 486-2]

1 -=- Sting - Mercury Falling.flac -=- CDDA (99%)

181907876
[свернуть]

Спектр частот

[свернуть]

Скачать Sting - Mercury Falling



password: sergych
[свернуть]

Контрольная сумма (хеш-сумма) архива

MD5: eb9de9a482842645b59b713b845f168b
[свернуть]
My opinion of release: 10/10
__________________
TAIFUN.Wings of Soul

Вверх
Пользователь сказал cпасибо:
burnett_s (08.06.2017)
Похожие темы
Тема Автор Раздел Ответов Последнее сообщение
Релиз Toby Hitchcock - Mercury's Down PUPOKIN Rock 0 31.07.2011 10:10
Альбом Freddie Mercury - Mr.Bad Guy PUPOKIN Hard Rock 0 30.01.2009 12:32
Falling Up - Discover The Trees Again: The Best Of Falling Up ReAl Alternative Rock 0 30.08.2008 22:42
Сборник Freddie Mercury - Freddie Mercury Alex_vn69 Hard Rock 0 08.05.2008 21:11


Метки
1996 , adult contemporary , country , mercury falling , rock , sting

Опции темы

Ваши права в разделе
Вы не можете создавать новые темы
Вы не можете отвечать в темах
Вы не можете прикреплять вложения
Вы не можете редактировать свои сообщения

Быстрый переход



Текущее время: 21:12. Часовой пояс GMT +3.
Powered by vBulletin® Version 3.8.7
Copyright ©2000 - 2017, vBulletin Solutions, Inc. Перевод: zCarot
© 2008 - 2017 Taifun With Song
Яндекс.Метрика