TAIFUN With Song
А знаете ли Вы, что...
Какое чрезвычайное происшествие дало мощный толчок развитию хип-хопа?
«В ночь с 13 на 14 июля 1977 года в Нью-Йорке вследствие ударов молний произошел блэкаут — массовое отключение электричества. Началось мародёрство и разграбление магазинов. Из салонов электроники было украдено множество дорогих диджейских установок, которые были не по карману негритянскому населению. Благодаря этому появилось большое количество новых диджеев, играющих в недавно зародившемся стиле хип-хоп, что дало мощный толчок в его развитии и популяризации за пределами Бронкса.»
 
Опции темы

  #1
Старый 08.03.2014, 10:52
sergych
Координатор
Досье
 
Аватар для sergych
Релиз Simply Red - Stay


2007 - Simply Red - Stay




Исполнитель/Artist: Simply Red
Альбом/Album: Stay
Год/Year: 2007
Жанр/Genre: Pop, Soul, Soft rock
Страна/Country: Соединённые Штаты
Рекорд-лейбл/Record label: simplyred.com
Номер в каталоге/Catalogue #: SMR 89935
Формат/Format: Free Lossless Audio Codec (*.flac)
Качество/Quality: Lossless
Тип рипа/RIP Type: image+.cue
Продолжительность/Length: 00:44:18
Источник/Source: Собственный рип
Размер/Size: 332.8 MB

Сканы в комплекте

Треклист

01. The World And You Tonight [0:03:33.11]
02. So Not Over You [0:03:50.45]
03. Stay [0:03:04.28]
04. They Don't Know [0:03:40.20]
05. Oh! What A Girl! [0:04:19.37]
06. Good Times Have Done Me Wrong [0:05:20.06]
07. Debris [0:04:52.24]
08. Lady [0:04:59.73]
09. Money TV [0:04:05.06]
10. The Death Of The Cool [0:03:26.45]
11. Little Englander [0:03:06.43]
[свернуть]

youtube.com

[свернуть]

Исполнители/Performers

Dave Bloor, Sarah Brown, Anthea Clarke,Dave Clayton, Gavin Gold*berg, Simon Hale, Geoff Hol*royde, Mark Jaimes, Dee John*son, Jilly John*son, John John*son, Ian Kirkham, Pete Lew*in*son, Steve Lew*in*son, Chris De Mar*gary, Jim McWiliam, Patrick Mur*dock, Kevin Robin*son, Danny Saxon, Morten Sch*jolin, Kenji Suzuki, Andy Wright, and The Lon*don Ses*sion Orches*tra led by Gavin Wright.
[свернуть]

EAC лог

Exact Audio Copy V1.0 beta 3 from 29. August 2011

EAC extraction logfile from 7. March 2014, 7:53

Simply Red / Stay

Used drive : ATAPI iHAS124 D Adapter: 0 ID: 2

Read mode : Secure
Utilize accurate stream : Yes
Defeat audio cache : Yes
Make use of C2 pointers : Yes

Read offset correction : 6
Overread into Lead-In and Lead-Out : No
Fill up missing offset samples with silence : Yes
Delete leading and trailing silent blocks : No
Null samples used in CRC calculations : Yes
Used interface : Installed external ASPI interface

Used output format : User Defined Encoder
Selected bitrate : 1024 kBit/s
Quality : High
Add ID3 tag : No
Command line compressor : C:\Program Files (x86)\Exact Audio Copy\Flac\flac.exe
Additional command line options : -6 -V -T "ARTIST=%artist%" -T "TITLE=%title%" -T "ALBUM=%albumtitle%" -T "DATE=%year%" -T "TRACKNUMBER=%tracknr%" -T "GENRE=%genre%" -T "COMMENT=%comment%" -T "BAND=%albuminterpret%" -T "COMPOSER=%composer%" %haslyrics%--tag-from-file=LYRICS="%lyricsfile%"%haslyrics% -T "DISCNUMBER=%cdnumber%" -T "TOTALDISCS=%totalcds%" -T "TOTALTRACKS=%numtracks%" %hascover%--picture="%coverfile%"%hascover% %source% -o %dest%


TOC of the extracted CD

Track | Start | Length | Start sector | End sector
---------------------------------------------------------
1 | 0:00.00 | 3:33.11 | 0 | 15985
2 | 3:33.11 | 3:50.45 | 15986 | 33280
3 | 7:23.56 | 3:04.28 | 33281 | 47108
4 | 10:28.09 | 3:40.20 | 47109 | 63628
5 | 14:08.29 | 4:19.37 | 63629 | 83090
6 | 18:27.66 | 5:20.06 | 83091 | 107096
7 | 23:47.72 | 4:52.24 | 107097 | 129020
8 | 28:40.21 | 4:59.73 | 129021 | 151518
9 | 33:40.19 | 4:05.06 | 151519 | 169899
10 | 37:45.25 | 3:26.45 | 169900 | 185394
11 | 41:11.70 | 3:06.43 | 185395 | 199387


Range status and errors

Selected range

Filename C:\mm\Simply Red\2007 - Stay [SMR 89935]\Simply Red - Stay.wav

Peak level 100.0 %
Extraction speed 12.7 X
Range quality 100.0 %
Test CRC 062D6031
Copy CRC 062D6031
Copy OK

No errors occurred


AccurateRip summary

Track 1 accurately ripped (confidence 7) [B4939A96] (AR v2)
Track 2 accurately ripped (confidence 7) [45F9055F] (AR v2)
Track 3 accurately ripped (confidence 7) [345AE168] (AR v2)
Track 4 accurately ripped (confidence 7) [AA09FEE7] (AR v2)
Track 5 accurately ripped (confidence 7) [D899FCE3] (AR v2)
Track 6 accurately ripped (confidence 7) [82AD4977] (AR v2)
Track 7 accurately ripped (confidence 7) [48D8CCDD] (AR v2)
Track 8 accurately ripped (confidence 7) [775A9437] (AR v2)
Track 9 accurately ripped (confidence 7) [CE70F6B7] (AR v2)
Track 10 accurately ripped (confidence 7) [8BFB0CE4] (AR v2)
Track 11 accurately ripped (confidence 8) [1BAE2E72] (AR v2)

All tracks accurately ripped

End of status report
[свернуть]

Файл CUE

REM GENRE Pop
REM DATE 2007
REM DISCID 7B0A620B
REM COMMENT "ExactAudioCopy v1.0b3"
PERFORMER "Simply Red"
TITLE "Stay"
FILE "Simply Red - Stay.flac" WAVE
TRACK 01 AUDIO
TITLE "The World And You Tonight"
PERFORMER "Simply Red"
INDEX 01 00:00:00
TRACK 02 AUDIO
TITLE "So Not Over You"
PERFORMER "Simply Red"
INDEX 00 03:31:52
INDEX 01 03:33:11
TRACK 03 AUDIO
TITLE "Stay"
PERFORMER "Simply Red"
INDEX 01 07:23:56
TRACK 04 AUDIO
TITLE "They Don't Know"
PERFORMER "Simply Red"
INDEX 00 10:28:04
INDEX 01 10:28:09
TRACK 05 AUDIO
TITLE "Oh! What A Girl!"
PERFORMER "Simply Red"
INDEX 00 14:07:27
INDEX 01 14:08:29
TRACK 06 AUDIO
TITLE "Good Times Have Done Me Wrong"
PERFORMER "Simply Red"
INDEX 00 18:27:34
INDEX 01 18:27:66
TRACK 07 AUDIO
TITLE "Debris"
PERFORMER "Simply Red"
INDEX 00 23:44:44
INDEX 01 23:47:72
TRACK 08 AUDIO
TITLE "Lady"
PERFORMER "Simply Red"
INDEX 00 28:37:73
INDEX 01 28:40:21
TRACK 09 AUDIO
TITLE "Money TV"
PERFORMER "Simply Red"
INDEX 01 33:40:19
TRACK 10 AUDIO
TITLE "The Death Of The Cool"
PERFORMER "Simply Red"
INDEX 00 37:43:42
INDEX 01 37:45:25
TRACK 11 AUDIO
TITLE "Little Englander"
PERFORMER "Simply Red"
INDEX 00 41:09:24
INDEX 01 41:11:70
[свернуть]

Лог проверки качества

AUDIOCHECKER v2.0 beta (build 457) - by Dester -
~~~~~~~~~~~~~~~~~~~~~~~~~~~~~~~~~~
-=== НЕ РЕДАКТИРУЙТЕ ЭТОТ ФАЙЛ! ===-

Путь: ...\2007 - Stay [SMR 89935]

1 -=- Simply Red - Stay.flac -=- CDDA (100%)

29719604
[свернуть]

Спектр частот

[свернуть]

Скачать Simply Red - Stay



password: sergych
[свернуть]
My opinion of release: 10/10
__________________
TAIFUN.Wings of Soul


Последний раз редактировалось sergych, 07.07.2014 в 19:15. Причина: перезаливка
Вверх
2 пользователя(ей) сказали cпасибо:
Chert (19.08.2014), TAIFUN (08.03.2014)
Похожие темы
Тема Автор Раздел Ответов Последнее сообщение
Сборник Fleetwood Mac - Simply The Best sergych Blues Rock 0 19.06.2013 22:15
Альбом Simply Red - Home PUPOKIN Зарубежная Поп-Музыка 0 02.08.2010 10:39
Релиз Simply Spa - Meditation PUPOKIN Ambient 0 25.01.2010 10:30
Simply Red выступят в Москве PUPOKIN Новости в мире музыки 0 26.10.2008 20:29


Метки
2007 , pop , simply red , soft rock , soul , stay

Опции темы

Ваши права в разделе
Вы не можете создавать новые темы
Вы не можете отвечать в темах
Вы не можете прикреплять вложения
Вы не можете редактировать свои сообщения

Быстрый переход



Текущее время: 14:25. Часовой пояс GMT +3.
Powered by vBulletin® Version 3.8.7
Copyright ©2000 - 2017, vBulletin Solutions, Inc. Перевод: zCarot
© 2008 - 2017 Taifun With Song
Яндекс.Метрика