TAIFUN With Song
Вернуться   TAIFUN With Song > Music (обменник) > Другие направления музыки > Саундтреки
Расширенный поиск
Саундтреки Саундтреки к фильмам, анимации, играм, сериалам

А знаете ли Вы, что...
Зачем в Англии 19 века надевали чехлы на ножки роялей?
«В пуританской Англии 19 века из общественной жизни старательно изгонялось всё, что могло показаться хоть сколько-нибудь эротичным. Так, во время концертов на ножки роялей надевали чехлы, чтобы никто, глядя на эти голые ножки, не задумался о чём-нибудь непристойном.»
 
Опции темы

  #1
Старый 22.01.2014, 19:12
sergych
Координатор
Досье
 
Аватар для sergych
Релиз Mark Knopfler - Music From The Film ''Metroland''


1998 - Music From The Film ''Metroland''




Исполнитель/Artist: Mark Knopfler
Альбом/Album: Metroland
Год/Year: 1998
Жанр/Genre: Film music, jazz, rock
Страна/Country: Соединённые Штаты
Рекорд-лейбл/Record label: Mercury Records / WEA
Номер в каталоге/Catalogue #: 9 47006-2
Формат/Format: Free Lossless Audio Codec (*.flac)
Качество/Quality: Lossless
Тип рипа/RIP Type: image+.cue
Продолжительность/Length: 00:45:42
Источник/Source: Собственный рип
Размер/Size: 445.1 MB

Сканы в комплекте

Треклист

01. Mark Knopfler / Metroland Theme [instrumental] [0:02:30.03]
02. Mark Knopfler / Annick [0:03:06.20]
03. Françoise Hardy / Tous Les Garcons Et Les Filles [0:03:11.72]
04. Mark Knopfler / Brats [0:02:43.18]
05. Django Reinhardt / Blues Chair [0:03:05.55]
06. Mark Knopfler / Down Day [0:01:56.05]
07. Mark Knopfler / A Walk In Paris [0:01:40.40]
08. Mark Knopfler / She's Gone [0:01:33.25]
09. Django Reinhardt / Minor Swing [0:03:18.67]
10. Stranglers, The / Peaches [0:04:08.70]
11. Dire Straits / Sultans Of Swing [0:05:50.63]
12. Hot Chocolate / So You Win Again [0:04:27.57]
13. Elvis Costello / Alison [0:03:27.08]
14. Mark Knopfler / Metroland [0:04:42.20]
[свернуть]

youtube.com

[свернуть]

EAC лог

Exact Audio Copy V1.0 beta 3 from 29. August 2011

EAC extraction logfile from 22. January 2014, 19:58

Various / Metroland

Used drive : ATAPI iHAS124 D Adapter: 0 ID: 2

Read mode : Secure
Utilize accurate stream : Yes
Defeat audio cache : Yes
Make use of C2 pointers : Yes

Read offset correction : 6
Overread into Lead-In and Lead-Out : No
Fill up missing offset samples with silence : Yes
Delete leading and trailing silent blocks : No
Null samples used in CRC calculations : Yes
Used interface : Installed external ASPI interface

Used output format : User Defined Encoder
Selected bitrate : 1024 kBit/s
Quality : High
Add ID3 tag : No
Command line compressor : C:\Program Files (x86)\Exact Audio Copy\Flac\flac.exe
Additional command line options : -6 -V -T "ARTIST=%artist%" -T "TITLE=%title%" -T "ALBUM=%albumtitle%" -T "DATE=%year%" -T "TRACKNUMBER=%tracknr%" -T "GENRE=%genre%" -T "COMMENT=%comment%" -T "BAND=%albuminterpret%" -T "COMPOSER=%composer%" %haslyrics%--tag-from-file=LYRICS="%lyricsfile%"%haslyrics% -T "DISCNUMBER=%cdnumber%" -T "TOTALDISCS=%totalcds%" -T "TOTALTRACKS=%numtracks%" %hascover%--picture="%coverfile%"%hascover% %source% -o %dest%


TOC of the extracted CD

Track | Start | Length | Start sector | End sector
---------------------------------------------------------
1 | 0:00.32 | 2:30.03 | 32 | 11284
2 | 2:30.35 | 3:06.20 | 11285 | 25254
3 | 5:36.55 | 3:11.72 | 25255 | 39651
4 | 8:48.52 | 2:43.18 | 39652 | 51894
5 | 11:31.70 | 3:05.55 | 51895 | 65824
6 | 14:37.50 | 1:56.05 | 65825 | 74529
7 | 16:33.55 | 1:40.40 | 74530 | 82069
8 | 18:14.20 | 1:33.25 | 82070 | 89069
9 | 19:47.45 | 3:18.67 | 89070 | 103986
10 | 23:06.37 | 4:08.70 | 103987 | 122656
11 | 27:15.32 | 5:50.63 | 122657 | 148969
12 | 33:06.20 | 4:27.57 | 148970 | 169051
13 | 37:34.02 | 3:27.08 | 169052 | 184584
14 | 41:01.10 | 4:42.20 | 184585 | 205754


Range status and errors

Selected range

Filename C:\mm\Mark Knopfler\1998 - Metroland [9 47006-2]\Various - Metroland.wav

Peak level 96.6 %
Extraction speed 4.4 X
Range quality 99.9 %
Test CRC AA19BE46
Copy CRC AA19BE46
Copy OK

No errors occurred


AccurateRip summary

Track 1 accurately ripped (confidence 11) [B8C48AE4] (AR v2)
Track 2 accurately ripped (confidence 10) [8908782A] (AR v2)
Track 3 accurately ripped (confidence 10) [E396B447] (AR v2)
Track 4 accurately ripped (confidence 10) [B4DE56BC] (AR v2)
Track 5 accurately ripped (confidence 10) [9FA72E95] (AR v2)
Track 6 accurately ripped (confidence 10) [B0D58232] (AR v2)
Track 7 accurately ripped (confidence 10) [EA2B4C3D] (AR v2)
Track 8 accurately ripped (confidence 10) [28F14205] (AR v2)
Track 9 accurately ripped (confidence 10) [A52666FA] (AR v2)
Track 10 accurately ripped (confidence 10) [0387B589] (AR v2)
Track 11 accurately ripped (confidence 11) [2AD72EA6] (AR v2)
Track 12 accurately ripped (confidence 10) [07E22435] (AR v2)
Track 13 accurately ripped (confidence 10) [39A49578] (AR v2)
Track 14 accurately ripped (confidence 10) [49881F26] (AR v2)

All tracks accurately ripped

End of status report
[свернуть]

Файл CUE

REM DATE 1998
REM DISCID E10AB70E
REM COMMENT "ExactAudioCopy v1.0b3"
PERFORMER "Various"
TITLE "Metroland"
FILE "Various - Metroland.flac" WAVE
TRACK 01 AUDIO
TITLE "Metroland Theme [instrumental]"
PERFORMER "Mark Knopfler"
INDEX 00 00:00:00
INDEX 01 00:00:32
TRACK 02 AUDIO
TITLE "Annick"
PERFORMER "Mark Knopfler"
INDEX 00 02:26:20
INDEX 01 02:30:35
TRACK 03 AUDIO
TITLE "Tous Les Garcons Et Les Filles"
PERFORMER "Francoise Hardy"
INDEX 00 05:31:60
INDEX 01 05:36:55
TRACK 04 AUDIO
TITLE "Brats"
PERFORMER "Mark Knopfler"
INDEX 00 08:43:15
INDEX 01 08:48:52
TRACK 05 AUDIO
TITLE "Blues Chair"
PERFORMER "Django Reinhardt"
INDEX 00 11:28:15
INDEX 01 11:31:70
TRACK 06 AUDIO
TITLE "Down Day"
PERFORMER "Mark Knopfler"
INDEX 00 14:33:27
INDEX 01 14:37:50
TRACK 07 AUDIO
TITLE "A Walk In Paris"
PERFORMER "Mark Knopfler"
INDEX 00 16:29:07
INDEX 01 16:33:55
TRACK 08 AUDIO
TITLE "She's Gone"
PERFORMER "Mark Knopfler"
INDEX 00 18:09:62
INDEX 01 18:14:20
TRACK 09 AUDIO
TITLE "Minor Swing"
PERFORMER "Django Reinhardt"
INDEX 00 19:42:50
INDEX 01 19:47:45
TRACK 10 AUDIO
TITLE "Peaches"
PERFORMER "Stranglers, The"
INDEX 00 23:00:65
INDEX 01 23:06:37
TRACK 11 AUDIO
TITLE "Sultans Of Swing"
PERFORMER "Dire Straits"
INDEX 00 27:11:52
INDEX 01 27:15:32
TRACK 12 AUDIO
TITLE "So You Win Again"
PERFORMER "Hot Chocolate"
INDEX 00 33:00:37
INDEX 01 33:06:20
TRACK 13 AUDIO
TITLE "Alison"
PERFORMER "Elvis Costello"
INDEX 00 37:28:37
INDEX 01 37:34:02
TRACK 14 AUDIO
TITLE "Metroland"
PERFORMER "Mark Knopfler"
INDEX 00 40:55:67
INDEX 01 41:01:10
[свернуть]

Лог проверки качества

AUDIOCHECKER v2.0 beta (build 457) - by Dester -
~~~~~~~~~~~~~~~~~~~~~~~~~~~~~~~~~~
-=== НЕ РЕДАКТИРУЙТЕ ЭТОТ ФАЙЛ! ===-

Путь: ...\1998 - Metroland [9 47006-2]

1 -=- Various - Metroland.flac -=- CDDA (100%)

22579764
[свернуть]

Спектр частот

[свернуть]

Скачать Music From The Film ''Metroland''



password: sergych
[свернуть]
My opinion of release: 10/10
__________________
TAIFUN.Wings of Soul

Вверх
Похожие темы
Тема Автор Раздел Ответов Последнее сообщение
Альбом Mark Knopfler - Privateering sergych Blues Rock 0 12.09.2012 12:14
Саундтрек Wag The Dog (music by Mark Knopfler) sergych Саундтреки 0 26.08.2012 01:40
Саундтрек The Princess Bride (music by Mark Knopfler) sergych Саундтреки 0 17.09.2010 10:10
Саундтрек Cal (music by Mark Knopfler) sergych Саундтреки 0 16.09.2010 11:40
Саундтрек Local Hero / Местный герой (music by Mark Knopfler) sergych Саундтреки 0 14.09.2010 13:54


Метки
1998 , film music , jazz , mark knopfler , metroland , rock

Опции темы

Ваши права в разделе
Вы не можете создавать новые темы
Вы не можете отвечать в темах
Вы не можете прикреплять вложения
Вы не можете редактировать свои сообщения

Быстрый переход



Текущее время: 02:27. Часовой пояс GMT +3.
Powered by vBulletin® Version 3.8.7
Copyright ©2000 - 2017, vBulletin Solutions, Inc. Перевод: zCarot
© 2008 - 2017 Taifun With Song
Яндекс.Метрика